  0
SECTION
  2
HEADER
  9
$ACADVER
  1
AC1018
  9
$ACADMAINTVER
 70
   104
  9
$DWGCODEPAGE
  3
ANSI_1252
  9
$LASTSAVEDBY
  1
GarHig
  9
$INSBASE
 10
0.0
 20
0.0
 30
0.0
  9
$EXTMIN
 10
4.665501109141239
 20
-0.8430199933155959
 30
-0.0015258207003583
  9
$EXTMAX
 10
9.995454451253827
 20
1.259631561034528
 30
0.0000000349246037
  9
$LIMMIN
 10
0.0
 20
0.0
  9
$LIMMAX
 10
0.0
 20
0.0
  9
$ORTHOMODE
 70
     0
  9
$REGENMODE
 70
     1
  9
$FILLMODE
 70
     1
  9
$QTEXTMODE
 70
     0
  9
$MIRRTEXT
 70
     1
  9
$LTSCALE
 40
0.2
  9
$ATTMODE
 70
     1
  9
$TEXTSIZE
 40
0.1
  9
$TRACEWID
 40
1.0
  9
$TEXTSTYLE
  7
SWTSTEXT
  9
$CLAYER
  8
0
  9
$CELTYPE
  6
CONTINUOUS
  9
$CECOLOR
 62
   256
  9
$CELTSCALE
 40
1.0
  9
$DISPSILH
 70
     0
  9
$DIMSCALE
 40
1.0
  9
$DIMASZ
 40
0.125
  9
$DIMEXO
 40
0.0625
  9
$DIMDLI
 40
0.38
  9
$DIMRND
 40
0.0
  9
$DIMDLE
 40
0.0
  9
$DIMEXE
 40
0.125
  9
$DIMTP
 40
0.0
  9
$DIMTM
 40
0.0
  9
$DIMTXT
 40
0.125
  9
$DIMCEN
 40
0.04
  9
$DIMTSZ
 40
0.0
  9
$DIMTOL
 70
     0
  9
$DIMLIM
 70
     0
  9
$DIMTIH
 70
     1
  9
$DIMTOH
 70
     1
  9
$DIMSE1
 70
     0
  9
$DIMSE2
 70
     0
  9
$DIMTAD
 70
     0
  9
$DIMZIN
 70
     0
  9
$DIMBLK
  1

  9
$DIMASO
 70
     1
  9
$DIMSHO
 70
     1
  9
$DIMPOST
  1

  9
$DIMAPOST
  1

  9
$DIMALT
 70
     0
  9
$DIMALTD
 70
     2
  9
$DIMALTF
 40
25.4
  9
$DIMLFAC
 40
1.0
  9
$DIMTOFL
 70
     0
  9
$DIMTVP
 40
0.0
  9
$DIMTIX
 70
     1
  9
$DIMSOXD
 70
     0
  9
$DIMSAH
 70
     0
  9
$DIMBLK1
  1

  9
$DIMBLK2
  1

  9
$DIMSTYLE
  2
SCADMECH
  9
$DIMCLRD
 70
     0
  9
$DIMCLRE
 70
     0
  9
$DIMCLRT
 70
     0
  9
$DIMTFAC
 40
1.0
  9
$DIMGAP
 40
0.09
  9
$DIMJUST
 70
     0
  9
$DIMSD1
 70
     0
  9
$DIMSD2
 70
     0
  9
$DIMTOLJ
 70
     1
  9
$DIMTZIN
 70
     0
  9
$DIMALTZ
 70
     0
  9
$DIMALTTZ
 70
     0
  9
$DIMUPT
 70
     0
  9
$DIMDEC
 70
     4
  9
$DIMTDEC
 70
     4
  9
$DIMALTU
 70
     2
  9
$DIMALTTD
 70
     2
  9
$DIMTXSTY
  7
SWTSTEXT
  9
$DIMAUNIT
 70
     0
  9
$DIMADEC
 70
     0
  9
$DIMALTRND
 40
0.0
  9
$DIMAZIN
 70
     0
  9
$DIMDSEP
 70
    46
  9
$DIMATFIT
 70
     1
  9
$DIMFRAC
 70
     0
  9
$DIMLDRBLK
  1

  9
$DIMLUNIT
 70
     5
  9
$DIMLWD
 70
    -2
  9
$DIMLWE
 70
    -2
  9
$DIMTMOVE
 70
     0
  9
$LUNITS
 70
     2
  9
$LUPREC
 70
     4
  9
$SKETCHINC
 40
0.1
  9
$FILLETRAD
 40
0.0
  9
$AUNITS
 70
     0
  9
$AUPREC
 70
     0
  9
$MENU
  1
acad
  9
$ELEVATION
 40
0.0
  9
$PELEVATION
 40
0.0
  9
$THICKNESS
 40
0.0
  9
$LIMCHECK
 70
     0
  9
$CHAMFERA
 40
0.0
  9
$CHAMFERB
 40
0.0
  9
$CHAMFERC
 40
0.0
  9
$CHAMFERD
 40
0.0
  9
$SKPOLY
 70
     0
  9
$TDCREATE
 40
2452213.687777049
  9
$TDUCREATE
 40
2452213.896110382
  9
$TDUPDATE
 40
2457851.609782407
  9
$TDUUPDATE
 40
2457851.818115741
  9
$TDINDWG
 40
0.0366284838
  9
$TDUSRTIMER
 40
2457836.415741644
  9
$USRTIMER
 70
     1
  9
$ANGBASE
 50
0.0
  9
$ANGDIR
 70
     0
  9
$PDMODE
 70
     1
  9
$PDSIZE
 40
-2.0
  9
$PLINEWID
 40
0.0
  9
$SPLFRAME
 70
     0
  9
$SPLINETYPE
 70
     6
  9
$SPLINESEGS
 70
     8
  9
$HANDSEED
  5
BFC
  9
$SURFTAB1
 70
     6
  9
$SURFTAB2
 70
     6
  9
$SURFTYPE
 70
     6
  9
$SURFU
 70
     6
  9
$SURFV
 70
     6
  9
$UCSBASE
  2

  9
$UCSNAME
  2

  9
$UCSORG
 10
0.0
 20
0.0
 30
0.0
  9
$UCSXDIR
 10
1.0
 20
0.0
 30
0.0
  9
$UCSYDIR
 10
0.0
 20
1.0
 30
0.0
  9
$UCSORTHOREF
  2

  9
$UCSORTHOVIEW
 70
     0
  9
$UCSORGTOP
 10
0.0
 20
0.0
 30
0.0
  9
$UCSORGBOTTOM
 10
0.0
 20
0.0
 30
0.0
  9
$UCSORGLEFT
 10
0.0
 20
0.0
 30
0.0
  9
$UCSORGRIGHT
 10
0.0
 20
0.0
 30
0.0
  9
$UCSORGFRONT
 10
0.0
 20
0.0
 30
0.0
  9
$UCSORGBACK
 10
0.0
 20
0.0
 30
0.0
  9
$PUCSBASE
  2

  9
$PUCSNAME
  2

  9
$PUCSORG
 10
0.0
 20
0.0
 30
0.0
  9
$PUCSXDIR
 10
1.0
 20
0.0
 30
0.0
  9
$PUCSYDIR
 10
0.0
 20
1.0
 30
0.0
  9
$PUCSORTHOREF
  2

  9
$PUCSORTHOVIEW
 70
     0
  9
$PUCSORGTOP
 10
0.0
 20
0.0
 30
0.0
  9
$PUCSORGBOTTOM
 10
0.0
 20
0.0
 30
0.0
  9
$PUCSORGLEFT
 10
0.0
 20
0.0
 30
0.0
  9
$PUCSORGRIGHT
 10
0.0
 20
0.0
 30
0.0
  9
$PUCSORGFRONT
 10
0.0
 20
0.0
 30
0.0
  9
$PUCSORGBACK
 10
0.0
 20
0.0
 30
0.0
  9
$USERI1
 70
     0
  9
$USERI2
 70
     0
  9
$USERI3
 70
     0
  9
$USERI4
 70
     0
  9
$USERI5
 70
     0
  9
$USERR1
 40
0.0
  9
$USERR2
 40
0.0
  9
$USERR3
 40
0.0
  9
$USERR4
 40
0.0
  9
$USERR5
 40
0.0
  9
$WORLDVIEW
 70
     1
  9
$SHADEDGE
 70
     3
  9
$SHADEDIF
 70
    70
  9
$TILEMODE
 70
     1
  9
$MAXACTVP
 70
    16
  9
$PINSBASE
 10
0.0
 20
0.0
 30
0.0
  9
$PLIMCHECK
 70
     0
  9
$PEXTMIN
 10
1.07500002421732
 20
0.8249999641433474
 30
0.0
  9
$PEXTMAX
 10
9.675000217955881
 20
7.424999677290128
 30
0.0
  9
$PLIMMIN
 10
-0.1249995194082185
 20
-0.1249999981226883
  9
$PLIMMAX
 10
10.87500024029589
 20
8.37499976158142
  9
$UNITMODE
 70
     0
  9
$VISRETAIN
 70
     0
  9
$PLINEGEN
 70
     1
  9
$PSLTSCALE
 70
     0
  9
$TREEDEPTH
 70
  3020
  9
$CMLSTYLE
  2
STANDARD
  9
$CMLJUST
 70
     0
  9
$CMLSCALE
 40
1.0
  9
$PROXYGRAPHICS
 70
     0
  9
$MEASUREMENT
 70
     0
  9
$CELWEIGHT
370
    -1
  9
$ENDCAPS
280
     0
  9
$JOINSTYLE
280
     0
  9
$LWDISPLAY
290
     0
  9
$INSUNITS
 70
     0
  9
$HYPERLINKBASE
  1

  9
$STYLESHEET
  1
monochrome.ctb
  9
$XEDIT
290
     1
  9
$CEPSNTYPE
380
     0
  9
$PSTYLEMODE
290
     1
  9
$FINGERPRINTGUID
  2
{D8FA5890-C65F-426E-8F3D-AD5C3B08D6C8}
  9
$VERSIONGUID
  2
{28B579F7-0E53-498B-BE7C-AAF115255A05}
  9
$EXTNAMES
290
     1
  9
$PSVPSCALE
 40
0.0
  9
$OLESTARTUP
290
     0
  9
$SORTENTS
280
   127
  9
$INDEXCTL
280
     0
  9
$HIDETEXT
280
     1
  9
$XCLIPFRAME
290
     0
  9
$HALOGAP
280
     0
  9
$OBSCOLOR
 70
   257
  9
$OBSLTYPE
280
     0
  9
$INTERSECTIONDISPLAY
280
     0
  9
$INTERSECTIONCOLOR
 70
   257
  9
$DIMASSOC
280
     1
  9
$PROJECTNAME
  1

  0
ENDSEC
  0
SECTION
  2
CLASSES
  0
CLASS
  1
IMAGE
  2
AcDbRasterImage
  3
ISM
 90
     2175
 91
        0
280
     0
281
     1
  0
CLASS
  1
DICTIONARYVAR
  2
AcDbDictionaryVar
  3
ObjectDBX Classes
 90
        0
 91
       13
280
     0
281
     0
  0
CLASS
  1
RASTERVARIABLES
  2
AcDbRasterVariables
  3
ISM
 90
        0
 91
        1
280
     0
281
     0
  0
CLASS
  1
IMAGEDEF
  2
AcDbRasterImageDef
  3
ISM
 90
        0
 91
        0
280
     0
281
     0
  0
CLASS
  1
IMAGEDEF_REACTOR
  2
AcDbRasterImageDefReactor
  3
ISM
 90
        1
 91
        0
280
     0
281
     0
  0
CLASS
  1
IDBUFFER
  2
AcDbIdBuffer
  3
ObjectDBX Classes
 90
        0
 91
        0
280
     0
281
     0
  0
CLASS
  1
SPATIAL_FILTER
  2
AcDbSpatialFilter
  3
ObjectDBX Classes
 90
        0
 91
        0
280
     0
281
     0
  0
CLASS
  1
SORTENTSTABLE
  2
AcDbSortentsTable
  3
ObjectDBX Classes
 90
        0
 91
        1
280
     0
281
     0
  0
CLASS
  1
LAYER_INDEX
  2
AcDbLayerIndex
  3
ObjectDBX Classes
 90
        0
 91
        0
280
     0
281
     0
  0
CLASS
  1
SPATIAL_INDEX
  2
AcDbSpatialIndex
  3
ObjectDBX Classes
 90
        0
 91
        0
280
     0
281
     0
  0
CLASS
  1
OBJECT_PTR
  2
CAseDLPNTableRecord
  3
ASE-LPNTableRecord
 90
        1
 91
        0
280
     0
281
     0
  0
CLASS
  1
PLOTSETTINGS
  2
AcDbPlotSettings
  3
ObjectDBX Classes
 90
        0
 91
        0
280
     0
281
     0
  0
CLASS
  1
ACDBDICTIONARYWDFLT
  2
AcDbDictionaryWithDefault
  3
ObjectDBX Classes
 90
        0
 91
        1
280
     0
281
     0
  0
CLASS
  1
TABLESTYLE
  2
AcDbTableStyle
  3
ObjectDBX Classes
 90
     4095
 91
        1
280
     0
281
     0
  0
CLASS
  1
MATERIAL
  2
AcDbMaterial
  3
ObjectDBX Classes
 90
     1153
 91
        3
280
     0
281
     0
  0
CLASS
  1
VISUALSTYLE
  2
AcDbVisualStyle
  3
ObjectDBX Classes
 90
     4095
 91
       24
280
     0
281
     0
  0
CLASS
  1
SCALE
  2
AcDbScale
  3
ObjectDBX Classes
 90
     1153
 91
       33
280
     0
281
     0
  0
CLASS
  1
MLEADERSTYLE
  2
AcDbMLeaderStyle
  3
ACDB_MLEADERSTYLE_CLASS
 90
     4095
 91
        1
280
     0
281
     0
  0
CLASS
  1
SUN
  2
AcDbSun
  3
SCENEOE
 90
     1153
 91
        1
280
     0
281
     0
  0
CLASS
  1
CELLSTYLEMAP
  2
AcDbCellStyleMap
  3
ObjectDBX Classes
 90
     1152
 91
        3
280
     0
281
     0
  0
CLASS
  1
ACDBSECTIONVIEWSTYLE
  2
AcDbSectionViewStyle
  3
ObjectDBX Classes
 90
     1025
 91
        1
280
     0
281
     0
  0
CLASS
  1
ACDBDETAILVIEWSTYLE
  2
AcDbDetailViewStyle
  3
ObjectDBX Classes
 90
     1025
 91
        1
280
     0
281
     0
  0
ENDSEC
  0
SECTION
  2
TABLES
  0
TABLE
  2
VPORT
  5
7
330
0
100
AcDbSymbolTable
 70
     1
  0
VPORT
  5
659
330
7
100
AcDbSymbolTableRecord
100
AcDbViewportTableRecord
  2
*Active
 70
     0
 10
0.0
 20
0.0
 11
1.0
 21
1.0
 12
6.372459789529859
 22
-0.0845326342138373
 13
0.0
 23
0.0
 14
1.0
 24
1.0
 15
0.0
 25
0.0
 16
0.0
 26
0.0
 36
1.0
 17
0.0
 27
0.0
 37
0.0
 40
4.348494101488084
 41
1.991463414634146
 42
50.0
 43
0.0
 44
0.0
 50
0.0
 51
0.0
 71
    16
 72
   100
 73
     1
 74
     1
 75
     0
 76
     0
 77
     0
 78
     0
281
     0
 65
     1
110
0.0
120
0.0
130
0.0
111
1.0
121
0.0
131
0.0
112
0.0
122
1.0
132
0.0
 79
     0
146
0.0
1001
ACAD_NAV_VCDISPLAY
1070
     3
  0
ENDTAB
  0
TABLE
  2
LTYPE
  5
4
330
0
100
AcDbSymbolTable
 70
     3
  0
LTYPE
  5
11
330
4
100
AcDbSymbolTableRecord
100
AcDbLinetypeTableRecord
  2
BYBLOCK
 70
     0
  3

 72
    65
 73
     0
 40
0.0
  0
LTYPE
  5
12
330
4
100
AcDbSymbolTableRecord
100
AcDbLinetypeTableRecord
  2
BYLAYER
 70
     0
  3

 72
    65
 73
     0
 40
0.0
  0
LTYPE
  5
13
330
4
100
AcDbSymbolTableRecord
100
AcDbLinetypeTableRecord
  2
CONTINUOUS
 70
     0
  3
Solid line
 72
    65
 73
     0
 40
0.0
  0
LTYPE
  5
392
330
4
100
AcDbSymbolTableRecord
100
AcDbLinetypeTableRecord
  2
PHANTOM
 70
     0
  3
Phantom ______  __  __  ______  __  __  ______
 72
    65
 73
     6
 40
2.5
 49
1.25
 74
     0
 49
-0.25
 74
     0
 49
0.25
 74
     0
 49
-0.25
 74
     0
 49
0.25
 74
     0
 49
-0.25
 74
     0
  0
ENDTAB
  0
TABLE
  2
LAYER
  5
2
102
{ACAD_XDICTIONARY
360
9C9
102
}
330
0
100
AcDbSymbolTable
 70
    12
  0
LAYER
  5
14
102
{ACAD_XDICTIONARY
360
B5D
102
}
330
2
100
AcDbSymbolTableRecord
100
AcDbLayerTableRecord
  2
0
 70
     0
 62
     7
  6
CONTINUOUS
370
    -3
390
C5
  0
LAYER
  5
2E
102
{ACAD_XDICTIONARY
360
B5F
102
}
330
2
100
AcDbSymbolTableRecord
100
AcDbLayerTableRecord
  2
R-SWTS-DET1
 70
     0
 62
     1
  6
CONTINUOUS
370
    -3
390
C5
  0
LAYER
  5
2F
102
{ACAD_XDICTIONARY
360
B61
102
}
330
2
100
AcDbSymbolTableRecord
100
AcDbLayerTableRecord
  2
R-ANNO-DIMS
 70
     0
 62
     3
  6
CONTINUOUS
370
    -3
390
C5
  0
LAYER
  5
32
102
{ACAD_XDICTIONARY
360
B63
102
}
330
2
100
AcDbSymbolTableRecord
100
AcDbLayerTableRecord
  2
R-ANNO-TEXT
 70
     0
 62
     6
  6
CONTINUOUS
370
    -3
390
C5
  0
LAYER
  5
33
102
{ACAD_XDICTIONARY
360
B65
102
}
330
2
100
AcDbSymbolTableRecord
100
AcDbLayerTableRecord
  2
R-SWTS-PAT3
 70
     0
 62
     4
  6
CONTINUOUS
370
    -3
390
C5
  0
LAYER
  5
34
102
{ACAD_XDICTIONARY
360
B67
102
}
330
2
100
AcDbSymbolTableRecord
100
AcDbLayerTableRecord
  2
R-SWTS-PAT2
 70
     0
 62
     1
  6
CONTINUOUS
370
    -3
390
C5
  0
LAYER
  5
35
102
{ACAD_XDICTIONARY
360
B69
102
}
330
2
100
AcDbSymbolTableRecord
100
AcDbLayerTableRecord
  2
R-SWTS-PAT1
 70
     0
 62
     5
  6
PHANTOM
370
    -3
390
C5
  0
LAYER
  5
36
102
{ACAD_XDICTIONARY
360
B6B
102
}
330
2
100
AcDbSymbolTableRecord
100
AcDbLayerTableRecord
  2
R-SWTS-DET3
 70
     0
 62
     5
  6
CONTINUOUS
370
    -3
390
C5
  0
LAYER
  5
37
102
{ACAD_XDICTIONARY
360
B6D
102
}
330
2
100
AcDbSymbolTableRecord
100
AcDbLayerTableRecord
  2
R-SWTS-DET2
 70
     0
 62
     4
  6
CONTINUOUS
370
    -3
390
C5
  0
LAYER
  5
D8
330
2
100
AcDbSymbolTableRecord
100
AcDbLayerTableRecord
  2
Defpoints
 70
     0
 62
     7
  6
CONTINUOUS
290
     0
370
    -3
390
C5
  0
LAYER
  5
32C
102
{ACAD_XDICTIONARY
360
B6F
102
}
330
2
100
AcDbSymbolTableRecord
100
AcDbLayerTableRecord
  2
R-SWTS-OTLN
 70
     0
 62
     2
  6
CONTINUOUS
370
    -3
390
C5
  0
LAYER
  5
A61
102
{ACAD_XDICTIONARY
360
A62
102
}
330
2
100
AcDbSymbolTableRecord
100
AcDbLayerTableRecord
  2
Layer 1
 70
     0
 62
     7
  6
CONTINUOUS
370
    -3
390
C5
  0
ENDTAB
  0
TABLE
  2
STYLE
  5
3
330
0
100
AcDbSymbolTable
 70
     2
  0
STYLE
  5
17
330
3
100
AcDbSymbolTableRecord
100
AcDbTextStyleTableRecord
  2
STANDARD
 70
     0
 40
0.0
 41
1.0
 50
0.0
 71
     0
 42
0.0
  3
txt
  4

  0
STYLE
  5
36C
330
3
100
AcDbSymbolTableRecord
100
AcDbTextStyleTableRecord
  2
SWTSTEXT
 70
     0
 40
0.125
 41
1.0
 50
0.0
 71
     0
 42
0.1
  3
simplex.shx
  4

  0
ENDTAB
  0
TABLE
  2
VIEW
  5
5
330
0
100
AcDbSymbolTable
 70
     0
  0
ENDTAB
  0
TABLE
  2
UCS
  5
6
330
0
100
AcDbSymbolTable
 70
     0
  0
ENDTAB
  0
TABLE
  2
APPID
  5
8
330
0
100
AcDbSymbolTable
 70
     8
  0
APPID
  5
16
330
8
100
AcDbSymbolTableRecord
100
AcDbRegAppTableRecord
  2
ACAD
 70
     0
  0
APPID
  5
322
330
8
100
AcDbSymbolTableRecord
100
AcDbRegAppTableRecord
  2
DCO15
 70
     0
  0
APPID
  5
9FE
330
8
100
AcDbSymbolTableRecord
100
AcDbRegAppTableRecord
  2
ACAD_PSEXT
 70
     0
  0
APPID
  5
A6B
330
8
100
AcDbSymbolTableRecord
100
AcDbRegAppTableRecord
  2
ACAD_NAV_VCDISPLAY
 70
     0
  0
APPID
  5
A6C
330
8
100
AcDbSymbolTableRecord
100
AcDbRegAppTableRecord
  2
GradientColor1ACI
 70
     0
  0
APPID
  5
A6D
330
8
100
AcDbSymbolTableRecord
100
AcDbRegAppTableRecord
  2
GradientColor2ACI
 70
     0
  0
APPID
  5
A6E
330
8
100
AcDbSymbolTableRecord
100
AcDbRegAppTableRecord
  2
ACAD_EXEMPT_FROM_CAD_STANDARDS
 70
     0
  0
APPID
  5
B04
330
8
100
AcDbSymbolTableRecord
100
AcDbRegAppTableRecord
  2
ACAD_MLEADERVER
 70
     0
  0
ENDTAB
  0
TABLE
  2
DIMSTYLE
  5
9
330
0
100
AcDbSymbolTable
 70
     3
100
AcDbDimStyleTable
 71
     0
  0
DIMSTYLE
105
18
102
{ACAD_REACTORS
330
2E3
330
2B1
330
10A
330
617
102
}
330
9
100
AcDbSymbolTableRecord
100
AcDbDimStyleTableRecord
  2
SCADMECH
 70
     0
 41
0.125
 44
0.125
140
0.125
141
0.04
174
     1
277
     5
289
     1
340
36C
  0
DIMSTYLE
105
A67
330
9
100
AcDbSymbolTableRecord
100
AcDbDimStyleTableRecord
  2
Standard
 70
     0
 40
0.25
 41
0.125
 44
0.125
140
0.125
141
0.0
271
     3
272
     3
340
17
  0
ENDTAB
  0
TABLE
  2
BLOCK_RECORD
  5
1
330
0
100
AcDbSymbolTable
 70
    11
  0
BLOCK_RECORD
  5
A
330
1
100
AcDbSymbolTableRecord
100
AcDbBlockTableRecord
  2
*MODEL_SPACE
340
C8
  0
BLOCK_RECORD
  5
B
330
1
100
AcDbSymbolTableRecord
100
AcDbBlockTableRecord
  2
*PAPER_SPACE
340
C9
  0
BLOCK_RECORD
  5
2B2
330
1
100
AcDbSymbolTableRecord
100
AcDbBlockTableRecord
  2
*D0
340
0
  0
BLOCK_RECORD
  5
2E4
330
1
100
AcDbSymbolTableRecord
100
AcDbBlockTableRecord
  2
*D1
340
0
  0
BLOCK_RECORD
  5
32D
330
1
100
AcDbSymbolTableRecord
100
AcDbBlockTableRecord
  2
Logo
340
0
  0
BLOCK_RECORD
  5
500
330
1
100
AcDbSymbolTableRecord
100
AcDbBlockTableRecord
  2
10x075CountersunkMachineScrew - Phillips
340
0
102
{BLKREFS
331
5C0
102
}
1001
ACAD
1000
DesignCenter Data
1002
{
1070
     1
1070
     1
1002
}
  0
BLOCK_RECORD
  5
618
330
1
100
AcDbSymbolTableRecord
100
AcDbBlockTableRecord
  2
*D4
340
0
  0
BLOCK_RECORD
  5
676
102
{ACAD_XDICTIONARY
360
677
102
}
330
1
100
AcDbSymbolTableRecord
100
AcDbBlockTableRecord
  2
PEMKO_ASSA LOGO
340
0
102
{BLKREFS
331
9CC
102
}
1001
ACAD
1000
DesignCenter Data
1002
{
1070
     1
1070
     1
1002
}
  0
BLOCK_RECORD
  5
9CB
330
1
100
AcDbSymbolTableRecord
100
AcDbBlockTableRecord
  2
Pemko_ASSA Logo WEB
340
0
102
{BLKREFS
331
9CF
102
}
  0
BLOCK_RECORD
  5
AA1
330
1
100
AcDbSymbolTableRecord
100
AcDbBlockTableRecord
  2
ASSA_ABLOY
340
0
310
28000000200000002000000001002000000000000010000001000000010000000000000000000000302821FF302821FF302821FF302821FF302821FF302821FF302821FF302821FF302821FF302821FF302821FF302821FF302821FF302821FF302821FF302821FF302821FF302821FF302821FF302821FF302821FF302821
310
FF302821FF302821FF302821FF302821FF302821FF302821FF302821FF302821FF302821FF302821FF302821FF302821FF302821FF302821FF302821FF302821FF302821FF302821FF302821FF302821FF302821FF302821FF302821FF302821FF302821FF302821FF302821FF302821FF302821FF302821FF302821FF3028
310
21FF302821FF302821FF302821FF302821FF302821FF302821FF302821FF302821FF302821FF302821FF302821FF302821FF302821FF302821FF302821FF302821FF302821FF302821FF302821FF302821FF302821FF302821FF302821FF302821FF302821FF302821FF302821FF302821FF302821FF302821FF302821FF30
310
2821FF302821FF302821FF302821FF302821FF302821FF302821FF302821FF302821FF302821FF302821FF302821FF302821FF302821FF302821FF302821FF302821FF302821FF302821FF302821FF302821FF302821FF302821FF302821FF302821FF302821FF302821FF302821FF302821FF302821FF302821FF302821FF
310
302821FF302821FF302821FF302821FF302821FF302821FF302821FF302821FF302821FF302821FF302821FF302821FF302821FF302821FF302821FF302821FF302821FF302821FF302821FF302821FF302821FF302821FF302821FF302821FF302821FF302821FF302821FF302821FF302821FF302821FF302821FF302821
310
FF302821FF302821FF302821FF302821FF302821FF302821FF302821FF302821FF302821FF302821FF302821FF302821FF302821FF302821FF302821FF302821FF302821FF302821FF302821FF302821FF302821FF302821FF302821FF302821FF302821FF302821FF302821FF302821FF302821FF302821FF302821FF3028
310
21FF302821FF302821FF302821FF302821FF302821FF302821FF302821FF302821FF302821FF302821FF302821FF302821FF302821FF302821FF302821FF302821FF302821FF302821FF302821FF302821FF302821FF302821FF302821FF302821FF302821FF302821FF302821FF302821FF302821FF302821FF302821FF30
310
2821FF302821FF302821FF302821FF302821FF302821FF302821FF302821FF302821FF302821FF302821FF302821FF302821FF302821FF302821FF302821FF302821FF302821FF302821FF302821FF302821FF302821FF302821FF302821FF302821FF302821FF302821FF302821FF302821FF302821FF302821FF302821FF
310
302821FF302821FF302821FF302821FF302821FF302821FF302821FF302821FF302821FF302821FF302821FF302821FF302821FF302821FF302821FF302821FF302821FF302821FF302821FF302821FF302821FF302821FF302821FF302821FF302821FF302821FF302821FF302821FF302821FF302821FF302821FF302821
310
FF302821FF302821FF302821FF302821FF302821FF302821FF302821FF302821FF302821FF302821FF302821FF302821FF302821FF302821FF302821FF302821FF302821FF302821FF302821FF302821FF302821FF302821FF302821FF302821FF302821FF302821FF302821FF302821FF302821FF302821FF302821FF3028
310
21FF302821FF302821FF302821FF302821FF302821FF302821FF302821FF302821FF302821FF302821FF302821FF302821FF302821FF302821FF302821FF302821FF302821FF302821FF302821FF302821FF302821FF302821FF302821FF302821FF302821FF302821FF302821FF302821FF302821FF302821FF302821FF30
310
2821FF302821FF302821FF302821FF302821FF302821FF302821FF302821FF302821FF302821FF302821FF302821FF302821FF302821FF302821FF302821FF302821FF302821FF302821FF302821FF302821FF302821FF302821FF302821FF302821FF302821FF302821FF302821FF302821FF302821FF302821FF302821FF
310
302821FF302821FF302821FF302821FF302821FF302821FF302821FF302821FF302821FF302821FF302821FF302821FF302821FF302821FF302821FF302821FF302821FF302821FF302821FF302821FF302821FF302821FF302821FF302821FF302821FF302821FF302821FF302821FF302821FF302821FF302821FF302821
310
FF302821FF302821FF302821FF302821FF302821FF302821FF302821FF302821FF302821FF302821FF302821FF302821FF302821FF302821FF302821FF302821FF302821FF302821FF302821FF302821FF302821FF302821FF302821FF302821FF302821FF302821FF302821FF302821FF302821FF302821FF302821FF3028
310
21FF302821FF302821FF302821FF302821FF302821FF302821FF302821FF302821FF302821FF302821FF302821FF302821FF302821FF302821FF302821FFFFFFFFFFFFFFFFFFFFFFFFFFFFFFFFFFFFFFFFFFFFFFFFFFFFFFFFFFFFFFFFFFFFFFFFFFFFFFFFFF302821FFFFFFFFFFFFFFFFFFFFFFFFFFFFFFFFFFFFFFFFFFFF
310
FFFFFFFFFFFFFFFFFFFFFFFFFFFFFFFFFFFFFFFFFFFFFFFFFFFFFFFFFFFFFFFFFFFFFFFFFFFFFFFFFFFFFF302821FF302821FF302821FF302821FF302821FFFFFFFFFFFFFFFFFFFFFFFFFFFFFFFFFFFFFFFFFFFFFFFFFFFFFFFFFFFFFFFFFFFFFFFFFFFFFFFFFFFFFFFFFFFFFFFFFFFFFFFFFFFFFFFFFFFFFFFFFFFFFFFFFF
310
FFFFFFFFFFFFFFFFFFFFFFFFFFFFFFFFFFFFFFFFFFFFFFFFFFFFFFFFFFFFFFFFFFFFFFFFFFFFFFFFFFFFFFFF302821FF302821FF302821FF302821FF302821FFFFFFFFFFFFFFFFFFFFFFFFFFFFFFFFFFFFFFFFFFFFFFFFFFFFFFFFFFFFFFFFFFFFFFFFFFFFFFFFFFFFFFFFFFFFFFFFFF302821FFFFFFFFFFFFFFFFFFFFFFFF
310
FFFFFFFFFFFFFFFFFFFFFFFFFFFFFFFFFFFFFFFFFFFFFFFFFFFFFFFFFF302821FFFFFFFFFFFFFFFFFFFFFFFFFFFFFFFFFF302821FF302821FF302821FF302821FF302821FFFFFFFFFFFFFFFFFFFFFFFFFFFFFFFFFFFFFFFFFFFFFFFFFFFFFFFFFFFFFFFFFFFFFFFFFFFFFFFFFFFFFFFFFF302821FFFFFFFFFFFFFFFFFFFFFF
310
FFFFFFFFFFFFFFFFFFFFFFFFFFFFFFFFFFFFFFFFFFFFFFFFFFFFFFFFFFFFFFFFFFFFFFFFFFFFFFFFFFFF302821FFFFFFFFFFFFFFFFFF302821FF302821FF302821FF302821FF302821FF302821FF302821FFFFFFFFFFFFFFFFFF302821FFFFFFFFFFFFFFFFFF302821FF302821FF302821FF302821FF302821FF302821FF30
310
2821FF302821FF302821FF302821FF302821FF302821FF302821FFFFFFFFFFFFFFFFFF302821FF302821FF302821FF302821FF302821FF302821FF302821FF302821FF302821FF302821FF302821FF302821FF302821FF302821FF302821FF302821FF302821FF302821FF302821FF302821FF302821FF302821FF302821FF
310
302821FF302821FF302821FF302821FF302821FF302821FF302821FF302821FF302821FF302821FF302821FF302821FF302821FF302821FF302821FF302821FF302821FF302821FF302821FF302821FF302821FF302821FF302821FF302821FF302821FF302821FF302821FF302821FF302821FF302821FF302821FF302821
310
FF302821FF302821FF302821FF302821FF302821FF302821FF302821FF302821FF302821FF302821FF302821FF302821FF302821FF302821FF302821FF302821FF302821FF302821FF302821FF302821FF302821FF302821FF302821FF302821FF302821FF302821FF302821FF302821FF302821FF302821FF302821FF3028
310
21FF302821FF302821FF302821FF302821FF302821FF302821FF302821FF302821FF302821FF302821FF302821FF302821FF302821FF302821FF302821FF302821FF302821FF302821FF302821FF302821FF302821FF302821FF302821FF302821FF302821FF302821FF302821FF302821FF302821FF302821FF302821FF30
310
2821FF302821FF302821FF302821FF302821FF302821FF302821FF302821FF302821FF302821FF302821FF302821FF302821FF302821FF302821FF302821FF302821FF302821FF302821FF302821FF302821FF302821FF302821FF302821FF302821FF302821FF302821FF302821FF302821FF302821FF302821FF302821FF
310
302821FF302821FF302821FF302821FF302821FF302821FF302821FF302821FF302821FF302821FF302821FF302821FF302821FF302821FF302821FF302821FF302821FF302821FF302821FF302821FF302821FF302821FF302821FF302821FF302821FF302821FF302821FF302821FF302821FF302821FF302821FF302821
310
FF302821FF302821FF302821FF302821FF302821FF302821FF302821FF302821FF302821FF302821FF302821FF302821FF302821FF302821FF302821FF302821FF302821FF302821FF302821FF302821FF302821FF302821FF302821FF302821FF302821FF302821FF302821FF302821FF302821FF302821FF302821FF3028
310
21FF302821FF302821FF302821FF302821FF302821FF302821FF302821FF302821FF302821FF302821FF302821FF302821FF302821FF302821FF302821FF302821FF302821FF302821FF302821FF302821FF302821FF302821FF302821FF302821FF302821FF302821FF302821FF302821FF302821FF302821FF302821FF30
310
2821FF302821FF302821FF302821FF302821FF302821FF302821FF302821FF302821FF302821FF302821FF302821FF302821FF302821FF302821FF302821FF302821FF302821FF302821FF302821FF302821FF302821FF302821FF302821FF302821FF302821FF302821FF302821FF302821FF302821FF302821FF302821FF
310
302821FF302821FF302821FF302821FF302821FF302821FF302821FF302821FF302821FF302821FF302821FF302821FF302821FF302821FF302821FF302821FF302821FF302821FF302821FF302821FF302821FF302821FF302821FF302821FF302821FF302821FF302821FF302821FF302821FF302821FF302821FF302821
310
FF302821FF302821FF302821FF302821FF302821FF302821FF302821FF302821FF302821FF302821FF302821FF302821FF302821FF302821FF302821FF302821FF302821FF302821FF302821FF302821FF302821FF302821FF302821FF302821FF302821FF302821FF302821FF302821FF302821FF302821FF302821FF3028
310
21FF302821FF302821FF302821FF302821FF302821FF302821FF302821FF302821FF302821FF302821FF302821FF302821FF302821FF302821FF302821FF302821FF302821FF302821FF302821FF302821FF302821FF302821FF302821FF302821FF302821FF302821FF302821FF302821FF302821FF302821FF302821FF30
310
2821FF302821FF302821FF302821FF302821FF302821FF302821FF302821FF302821FF302821FF302821FF302821FF302821FF302821FF302821FF302821FF302821FF302821FF302821FF302821FF302821FF302821FF302821FF302821FF302821FF302821FF302821FF302821FF302821FF302821FF302821FF302821FF
310
302821FF302821FF302821FF302821FF302821FF302821FF302821FF302821FF302821FF302821FF302821FF302821FF302821FF302821FF302821FF302821FF302821FF302821FF
102
{BLKREFS
331
AA0
102
}
  0
BLOCK_RECORD
  5
B2B
330
1
100
AcDbSymbolTableRecord
100
AcDbBlockTableRecord
  2
T5R1BL - insert
340
0
102
{BLKREFS
331
B56
102
}
  0
ENDTAB
  0
ENDSEC
  0
SECTION
  2
BLOCKS
  0
BLOCK
  5
D
330
A
100
AcDbEntity
  8
0
100
AcDbBlockBegin
  2
*MODEL_SPACE
 70
     0
 10
0.0
 20
0.0
 30
0.0
  3
*MODEL_SPACE
  1

  0
ENDBLK
  5
E
330
A
100
AcDbEntity
  8
0
100
AcDbBlockEnd
  0
BLOCK
  5
F
330
B
100
AcDbEntity
 67
     1
  8
0
100
AcDbBlockBegin
  2
*PAPER_SPACE
 70
     0
 10
0.0
 20
0.0
 30
0.0
  3
*PAPER_SPACE
  1

  0
ENDBLK
  5
10
330
B
100
AcDbEntity
 67
     1
  8
0
100
AcDbBlockEnd
  0
BLOCK
  5
2BD
330
2B2
100
AcDbEntity
  8
0
100
AcDbBlockBegin
  2
*D0
 70
     1
 10
0.0
 20
0.0
 30
0.0
  3
*D0
  1

  0
LINE
  5
5F1
330
2B2
100
AcDbEntity
  8
R-ANNO-DIMS
  6
Continuous
 62
     0
440
 16777216
370
    -2
100
AcDbLine
 10
6.645824593125978
 20
0.5822354290412118
 30
0.0
 11
6.645824593125978
 21
1.238734428794145
 31
0.0
  0
LINE
  5
5F2
330
2B2
100
AcDbEntity
  8
R-ANNO-DIMS
  6
Continuous
 62
     0
440
 16777216
370
    -2
100
AcDbLine
 10
6.020824593125977
 20
0.9012344290412123
 30
0.0
 11
6.020824593125977
 21
1.238734428794145
 31
0.0
  0
LINE
  5
5F3
330
2B2
100
AcDbEntity
  8
R-ANNO-DIMS
  6
Continuous
 62
     0
440
 16777216
370
    -2
100
AcDbLine
 10
6.520824593125978
 20
1.113734428794145
 30
0.0
 11
6.464991259574292
 21
1.113734428794145
 31
0.0
  0
LINE
  5
5F4
330
2B2
100
AcDbEntity
  8
R-ANNO-DIMS
  6
Continuous
 62
     0
440
 16777216
370
    -2
100
AcDbLine
 10
6.145824593125977
 20
1.113734428794145
 30
0.0
 11
6.201657926240958
 21
1.113734428794145
 31
0.0
  0
SOLID
  5
5F5
330
2B2
100
AcDbEntity
  8
R-ANNO-DIMS
 62
     0
440
 16777216
100
AcDbTrace
 10
6.520824593125978
 20
1.092901095460812
 30
0.0
 11
6.520824593125978
 21
1.134567762127478
 31
0.0
 12
6.645824593125978
 22
1.113734428794145
 32
0.0
 13
6.645824593125978
 23
1.113734428794145
 33
0.0
  0
SOLID
  5
5F6
330
2B2
100
AcDbEntity
  8
R-ANNO-DIMS
 62
     0
440
 16777216
100
AcDbTrace
 10
6.145824593125977
 20
1.134567762127478
 30
0.0
 11
6.145824593125977
 21
1.092901095460812
 31
0.0
 12
6.020824593125977
 22
1.113734428794145
 32
0.0
 13
6.020824593125977
 23
1.113734428794145
 33
0.0
  0
MTEXT
  5
5F7
330
2B2
100
AcDbEntity
  8
R-ANNO-DIMS
  6
Continuous
 62
     0
440
 16777216
100
AcDbMText
 10
6.333324592907625
 20
1.113734428794145
 30
0.0
 40
0.125
 41
0.0
 71
     5
 72
     1
  1
\A1;{\H1.000000x;\S5/8;}
  7
SWTSTEXT
 73
     1
 44
1.0
  0
POINT
  5
5F8
330
2B2
100
AcDbEntity
  8
Defpoints
 62
     0
440
 16777216
100
AcDbPoint
 10
6.645824593125978
 20
0.5197354290412118
 30
0.0
  0
POINT
  5
5F9
330
2B2
100
AcDbEntity
  8
Defpoints
 62
     0
440
 16777216
100
AcDbPoint
 10
6.020824593125977
 20
0.8387344290412123
 30
0.0
  0
POINT
  5
5FA
330
2B2
100
AcDbEntity
  8
Defpoints
 62
     0
440
 16777216
100
AcDbPoint
 10
6.020824593125977
 20
1.113734428794145
 30
0.0
  0
ENDBLK
  5
2BE
330
2B2
100
AcDbEntity
  8
0
100
AcDbBlockEnd
  0
BLOCK
  5
2F0
330
2E4
100
AcDbEntity
  8
0
100
AcDbBlockBegin
  2
*D1
 70
     1
 10
0.0
 20
0.0
 30
0.0
  3
*D1
  1

  0
LINE
  5
5E7
330
2E4
100
AcDbEntity
  8
R-ANNO-DIMS
  6
Continuous
 62
     0
440
 16777216
370
    -2
100
AcDbLine
 10
6.624489137887419
 20
0.8637344290412137
 30
0.0
 11
7.020824592907625
 21
0.8637344290412137
 31
0.0
  0
LINE
  5
5E8
330
2E4
100
AcDbEntity
  8
R-ANNO-DIMS
  6
Continuous
 62
     0
440
 16777216
370
    -2
100
AcDbLine
 10
6.708324593125978
 20
0.4887354290412121
 30
0.0
 11
7.020824592907625
 21
0.4887354290412121
 31
0.0
  0
LINE
  5
5E9
330
2E4
100
AcDbEntity
  8
R-ANNO-DIMS
  6
Continuous
 62
     0
440
 16777216
370
    -2
100
AcDbLine
 10
6.895824592907625
 20
0.9887344290412137
 30
0.0
 11
6.895824592907625
 21
1.113734429041213
 31
0.0
  0
LINE
  5
5EA
330
2E4
100
AcDbEntity
  8
R-ANNO-DIMS
  6
Continuous
 62
     0
440
 16777216
370
    -2
100
AcDbLine
 10
6.895824592907625
 20
0.363735429041212
 30
0.0
 11
6.895824592907625
 21
0.238735429041212
 31
0.0
  0
SOLID
  5
5EB
330
2E4
100
AcDbEntity
  8
R-ANNO-DIMS
 62
     0
440
 16777216
100
AcDbTrace
 10
6.874991259574292
 20
0.9887344290412137
 30
0.0
 11
6.916657926240958
 21
0.9887344290412137
 31
0.0
 12
6.895824592907625
 22
0.8637344290412137
 32
0.0
 13
6.895824592907625
 23
0.8637344290412137
 33
0.0
  0
SOLID
  5
5EC
330
2E4
100
AcDbEntity
  8
R-ANNO-DIMS
 62
     0
440
 16777216
100
AcDbTrace
 10
6.916657926240958
 20
0.363735429041212
 30
0.0
 11
6.874991259574292
 21
0.363735429041212
 31
0.0
 12
6.895824592907625
 22
0.4887354290412121
 32
0.0
 13
6.895824592907625
 23
0.4887354290412121
 33
0.0
  0
MTEXT
  5
5ED
330
2E4
100
AcDbEntity
  8
R-ANNO-DIMS
  6
Continuous
 62
     0
440
 16777216
100
AcDbMText
 10
6.895824592907625
 20
0.676234929041213
 30
0.0
 40
0.125
 41
0.0
 71
     5
 72
     1
  1
\A1;{\H1.000000x;\S3/8;}
  7
SWTSTEXT
 73
     1
 44
1.0
  0
POINT
  5
5EE
330
2E4
100
AcDbEntity
  8
Defpoints
 62
     0
440
 16777216
100
AcDbPoint
 10
6.561989137887419
 20
0.8637344290412137
 30
0.0
  0
POINT
  5
5EF
330
2E4
100
AcDbEntity
  8
Defpoints
 62
     0
440
 16777216
100
AcDbPoint
 10
6.645824593125978
 20
0.4887354290412121
 30
0.0
  0
POINT
  5
5F0
330
2E4
100
AcDbEntity
  8
Defpoints
 62
     0
440
 16777216
100
AcDbPoint
 10
6.895824592907625
 20
0.4887354290412121
 30
0.0
  0
ENDBLK
  5
2F1
330
2E4
100
AcDbEntity
  8
0
100
AcDbBlockEnd
  0
BLOCK
  5
367
330
32D
100
AcDbEntity
  8
0
100
AcDbBlockBegin
  2
Logo
 70
     0
 10
0.0
 20
0.0
 30
0.0
  3
Logo
  1

  0
ARC
  5
32E
102
{ACAD_REACTORS
330
364
102
}
330
32D
100
AcDbEntity
  8
R-SWTS-DET1
  6
Continuous
 62
     6
100
AcDbCircle
 10
0.0941740410091869
 20
0.0124999999999993
 30
0.0
 40
0.005
100
AcDbArc
 50
270.0
 51
7.560843176671826
  0
ARC
  5
32F
102
{ACAD_REACTORS
330
365
102
}
330
32D
100
AcDbEntity
  8
R-SWTS-DET2
  6
Continuous
 62
     6
100
AcDbCircle
 10
0.0941740410091869
 20
-0.0125000000000002
 30
0.0
 40
0.005
100
AcDbArc
 50
352.4391568233282
 51
90.0
  0
ARC
  5
330
102
{ACAD_REACTORS
330
35F
102
}
330
32D
100
AcDbEntity
  8
R-ANNO-TEXT
  6
Continuous
 62
     6
100
AcDbCircle
 10
0.0577522682445042
 20
0.0754299377741674
 30
0.0
 40
0.005
100
AcDbArc
 50
314.9999999999991
 51
52.56084317667283
  0
ARC
  5
331
102
{ACAD_REACTORS
330
35F
102
}
330
32D
100
AcDbEntity
  8
R-ANNO-TEXT
  6
Continuous
 62
     6
100
AcDbCircle
 10
0.0124999999999997
 20
0.0941740410091869
 30
0.0
 40
0.005
100
AcDbArc
 50
82.43915682332817
 51
180.0
  0
ARC
  5
332
102
{ACAD_REACTORS
330
35E
102
}
330
32D
100
AcDbEntity
  8
R-ANNO-DIMS
  6
Continuous
 62
     6
100
AcDbCircle
 10
-0.0124999999999997
 20
0.0941740410091869
 30
0.0
 40
0.005
100
AcDbArc
 50
0.0
 51
97.56084317667179
  0
ARC
  5
333
102
{ACAD_REACTORS
330
35F
102
}
330
32D
100
AcDbEntity
  8
R-ANNO-TEXT
  6
Continuous
 62
     6
100
AcDbCircle
 10
0.0
 20
0.0
 30
0.0
 40
0.1
100
AcDbArc
 50
52.56084317667203
 51
82.43915682332799
  0
ARC
  5
334
102
{ACAD_REACTORS
330
35E
102
}
330
32D
100
AcDbEntity
  8
R-ANNO-DIMS
  6
Continuous
 62
     6
100
AcDbCircle
 10
-0.0577522682445042
 20
0.0754299377741674
 30
0.0
 40
0.005
100
AcDbArc
 50
127.4391568233271
 51
224.9999999999982
  0
ARC
  5
335
102
{ACAD_REACTORS
330
35E
102
}
330
32D
100
AcDbEntity
  8
R-ANNO-DIMS
  6
Continuous
 62
     6
100
AcDbCircle
 10
0.0
 20
0.0
 30
0.0
 40
0.1
100
AcDbArc
 50
97.56084317667193
 51
127.439156823328
  0
ARC
  5
336
102
{ACAD_REACTORS
330
364
102
}
330
32D
100
AcDbEntity
  8
R-SWTS-DET1
  6
Continuous
 62
     6
100
AcDbCircle
 10
0.0754299377741679
 20
0.0577522682445042
 30
0.0
 40
0.005
100
AcDbArc
 50
37.43915682332774
 51
135.0000000000018
  0
LINE
  5
337
102
{ACAD_REACTORS
330
364
102
}
330
32D
100
AcDbEntity
  8
R-SWTS-DET1
  6
Continuous
 62
     6
100
AcDbLine
 10
0.0266421356237312
 20
0.0160355339059333
 30
0.0
 11
0.071894403868235
 21
0.0612878021504368
 31
0.0
  0
ARC
  5
338
102
{ACAD_REACTORS
330
365
102
}
330
32D
100
AcDbEntity
  8
R-SWTS-DET2
  6
Continuous
 62
     6
100
AcDbCircle
 10
0.0301776695296634
 20
-0.0125000000000002
 30
0.0
 40
0.005
100
AcDbArc
 50
90.0
 51
225.0000000000018
  0
ARC
  5
339
102
{ACAD_REACTORS
330
364
102
}
330
32D
100
AcDbEntity
  8
R-SWTS-DET1
  6
Continuous
 62
     6
100
AcDbCircle
 10
0.0301776695296641
 20
0.0125000000000002
 30
0.0
 40
0.005
100
AcDbArc
 50
135.0
 51
270.0
  0
ARC
  5
33A
102
{ACAD_REACTORS
330
35F
102
}
330
32D
100
AcDbEntity
  8
R-ANNO-TEXT
  6
Continuous
 62
     6
100
AcDbCircle
 10
0.0124999999999997
 20
0.0301776695296634
 30
0.0
 40
0.005
100
AcDbArc
 50
180.0
 51
315.0000000000018
  0
ARC
  5
33B
102
{ACAD_REACTORS
330
35E
102
}
330
32D
100
AcDbEntity
  8
R-ANNO-DIMS
  6
Continuous
 62
     6
100
AcDbCircle
 10
-0.0124999999999997
 20
0.030177669529663
 30
0.0
 40
0.005
100
AcDbArc
 50
225.0000000000018
 51
0.0
  0
ARC
  5
33C
102
{ACAD_REACTORS
330
349
102
}
330
32D
100
AcDbEntity
  8
R-SWTS-DET3
  6
Continuous
 62
     6
100
AcDbCircle
 10
0.0125
 20
-0.0301776695296638
 30
0.0
 40
0.005
100
AcDbArc
 50
45.00000000000089
 51
180.0
  0
ARC
  5
33D
102
{ACAD_REACTORS
330
358
102
}
330
32D
100
AcDbEntity
  8
R-SWTS-PAT1
  6
Continuous
 62
     6
100
AcDbCircle
 10
-0.0301776695296634
 20
-0.0125000000000002
 30
0.0
 40
0.005
100
AcDbArc
 50
314.9999999999991
 51
90.0
  0
ARC
  5
33E
102
{ACAD_REACTORS
330
357
102
}
330
32D
100
AcDbEntity
  8
R-SWTS-OTLN
  6
Continuous
 62
     6
100
AcDbCircle
 10
-0.0124999999999997
 20
-0.0301776695296638
 30
0.0
 40
0.005
100
AcDbArc
 50
0.0
 51
134.9999999999973
  0
ARC
  5
33F
102
{ACAD_REACTORS
330
359
102
}
330
32D
100
AcDbEntity
  8
R-SWTS-PAT2
  6
Continuous
 62
     6
100
AcDbCircle
 10
-0.0301776695296634
 20
0.0124999999999993
 30
0.0
 40
0.005
100
AcDbArc
 50
270.0
 51
44.9999999999991
  0
ARC
  5
340
102
{ACAD_REACTORS
330
365
102
}
330
32D
100
AcDbEntity
  8
R-SWTS-DET2
  6
Continuous
 62
     6
100
AcDbCircle
 10
0.0754299377741679
 20
-0.0577522682445046
 30
0.0
 40
0.005
100
AcDbArc
 50
225.0000000000018
 51
322.5608431766723
  0
ARC
  5
341
102
{ACAD_REACTORS
330
349
102
}
330
32D
100
AcDbEntity
  8
R-SWTS-DET3
  6
Continuous
 62
     6
100
AcDbCircle
 10
0.0577522682445042
 20
-0.0754299377741683
 30
0.0
 40
0.005
100
AcDbArc
 50
307.4391568233271
 51
44.9999999999982
  0
ARC
  5
342
102
{ACAD_REACTORS
330
349
102
}
330
32D
100
AcDbEntity
  8
R-SWTS-DET3
  6
Continuous
 62
     6
100
AcDbCircle
 10
0.0124999999999997
 20
-0.0941740410091869
 30
0.0
 40
0.005
100
AcDbArc
 50
180.0
 51
277.5608431766718
  0
ARC
  5
343
102
{ACAD_REACTORS
330
357
102
}
330
32D
100
AcDbEntity
  8
R-SWTS-OTLN
  6
Continuous
 62
     6
100
AcDbCircle
 10
-0.0124999999999997
 20
-0.0941740410091869
 30
0.0
 40
0.005
100
AcDbArc
 50
262.4391568233282
 51
0.0
  0
ARC
  5
344
102
{ACAD_REACTORS
330
349
102
}
330
32D
100
AcDbEntity
  8
R-SWTS-DET3
  6
Continuous
 62
     6
100
AcDbCircle
 10
0.0
 20
0.0
 30
0.0
 40
0.1
100
AcDbArc
 50
277.5608431766719
 51
307.439156823328
  0
LINE
  5
345
102
{ACAD_REACTORS
330
365
102
}
330
32D
100
AcDbEntity
  8
R-SWTS-DET2
  6
Continuous
 62
     6
100
AcDbLine
 10
0.0266421356237303
 20
-0.0160355339059324
 30
0.0
 11
0.071894403868235
 21
-0.0612878021504373
 31
0.0
  0
LINE
  5
346
102
{ACAD_REACTORS
330
349
102
}
330
32D
100
AcDbEntity
  8
R-SWTS-DET3
  6
Continuous
 62
     6
100
AcDbLine
 10
0.0160355339059328
 20
-0.0266421356237308
 30
0.0
 11
0.0612878021504373
 21
-0.0718944038682352
 31
0.0
  0
LINE
  5
347
102
{ACAD_REACTORS
330
349
102
}
330
32D
100
AcDbEntity
  8
R-SWTS-DET3
  6
Continuous
 62
     6
100
AcDbLine
 10
0.0074999999999998
 20
-0.0301776695296638
 30
0.0
 11
0.0074999999999998
 21
-0.0941740410091869
 31
0.0
  0
LINE
  5
348
102
{ACAD_REACTORS
330
357
102
}
330
32D
100
AcDbEntity
  8
R-SWTS-OTLN
  6
Continuous
 62
     6
100
AcDbLine
 10
-0.0074999999999998
 20
-0.0301776695296638
 30
0.0
 11
-0.0074999999999998
 21
-0.0941740410091869
 31
0.0
  0
HATCH
  5
349
330
32D
100
AcDbEntity
  8
R-SWTS-DET3
  6
Continuous
 62
     6
100
AcDbHatch
 10
0.0
 20
0.0
 30
0.0
210
0.0
220
0.0
230
1.0
  2
SOLID
 70
     1
 71
     1
 91
        1
 92
        7
 72
     1
 73
     1
 93
        6
 10
0.0160355339059329
 20
-0.0266421356237308
 42
0.6681786379193446
 10
0.0074999999999998
 20
-0.0301776695296634
 42
0.0
 10
0.0074999999999998
 20
-0.0941740410091869
 42
0.4534141234453589
 10
0.0131578947368419
 20
-0.0991305694833544
 42
0.1311123756655087
 10
0.0607918613100043
 20
-0.0793999344991243
 42
0.4534141234454098
 10
0.0612878021504371
 20
-0.071894403868235
 42
0.0
 97
        6
330
33C
330
347
330
342
330
344
330
341
330
346
 75
     0
 76
     1
 47
0.0008898326864094
 98
        1
 10
0.0452949310457915
 20
-0.066915027358724
450
        0
451
        0
460
0.0
461
0.0
452
        1
462
0.0
453
        0
470

  0
ARC
  5
34A
102
{ACAD_REACTORS
330
359
102
}
330
32D
100
AcDbEntity
  8
R-SWTS-PAT2
  6
Continuous
 62
     6
100
AcDbCircle
 10
-0.0754299377741679
 20
0.0577522682445038
 30
0.0
 40
0.005
100
AcDbArc
 50
45.00000000000089
 51
142.5608431766718
  0
ARC
  5
34B
102
{ACAD_REACTORS
330
358
102
}
330
32D
100
AcDbEntity
  8
R-SWTS-PAT1
  6
Continuous
 62
     6
100
AcDbCircle
 10
-0.0941740410091869
 20
-0.0125000000000002
 30
0.0
 40
0.005
100
AcDbArc
 50
90.0
 51
187.5608431766716
  0
ARC
  5
34C
102
{ACAD_REACTORS
330
359
102
}
330
32D
100
AcDbEntity
  8
R-SWTS-PAT2
  6
Continuous
 62
     6
100
AcDbCircle
 10
-0.0941740410091869
 20
0.0124999999999993
 30
0.0
 40
0.005
100
AcDbArc
 50
172.4391568233283
 51
270.0
  0
ARC
  5
34D
102
{ACAD_REACTORS
330
359
102
}
330
32D
100
AcDbEntity
  8
R-SWTS-PAT2
  6
Continuous
 62
     6
100
AcDbCircle
 10
0.0
 20
0.0
 30
0.0
 40
0.1
100
AcDbArc
 50
142.560843176672
 51
172.439156823328
  0
ARC
  5
34E
102
{ACAD_REACTORS
330
357
102
}
330
32D
100
AcDbEntity
  8
R-SWTS-OTLN
  6
Continuous
 62
     6
100
AcDbCircle
 10
-0.0577522682445042
 20
-0.0754299377741683
 30
0.0
 40
0.005
100
AcDbArc
 50
135.0000000000018
 51
232.5608431766728
  0
ARC
  5
34F
102
{ACAD_REACTORS
330
358
102
}
330
32D
100
AcDbEntity
  8
R-SWTS-PAT1
  6
Continuous
 62
     6
100
AcDbCircle
 10
-0.0754299377741679
 20
-0.0577522682445046
 30
0.0
 40
0.005
100
AcDbArc
 50
217.4391568233282
 51
314.9999999999991
  0
ARC
  5
350
102
{ACAD_REACTORS
330
358
102
}
330
32D
100
AcDbEntity
  8
R-SWTS-PAT1
  6
Continuous
 62
     6
100
AcDbCircle
 10
0.0
 20
0.0
 30
0.0
 40
0.1
100
AcDbArc
 50
187.5608431766719
 51
217.4391568233279
  0
ARC
  5
351
102
{ACAD_REACTORS
330
357
102
}
330
32D
100
AcDbEntity
  8
R-SWTS-OTLN
  6
Continuous
 62
     6
100
AcDbCircle
 10
0.0
 20
0.0
 30
0.0
 40
0.1
100
AcDbArc
 50
232.560843176672
 51
262.4391568233281
  0
LINE
  5
352
102
{ACAD_REACTORS
330
357
102
}
330
32D
100
AcDbEntity
  8
R-SWTS-OTLN
  6
Continuous
 62
     6
100
AcDbLine
 10
-0.0160355339059324
 20
-0.0266421356237308
 30
0.0
 11
-0.0612878021504373
 21
-0.0718944038682352
 31
0.0
  0
LINE
  5
353
102
{ACAD_REACTORS
330
358
102
}
330
32D
100
AcDbEntity
  8
R-SWTS-PAT1
  6
Continuous
 62
     6
100
AcDbLine
 10
-0.0266421356237308
 20
-0.0160355339059333
 30
0.0
 11
-0.0718944038682352
 21
-0.0612878021504368
 31
0.0
  0
LINE
  5
354
102
{ACAD_REACTORS
330
358
102
}
330
32D
100
AcDbEntity
  8
R-SWTS-PAT1
  6
Continuous
 62
     6
100
AcDbLine
 10
-0.0301776695296634
 20
-0.0075000000000003
 30
0.0
 11
-0.0941740410091869
 21
-0.0075000000000003
 31
0.0
  0
LINE
  5
355
102
{ACAD_REACTORS
330
359
102
}
330
32D
100
AcDbEntity
  8
R-SWTS-PAT2
  6
Continuous
 62
     6
100
AcDbLine
 10
-0.0266421356237308
 20
0.0160355339059324
 30
0.0
 11
-0.0718944038682352
 21
0.0612878021504368
 31
0.0
  0
LINE
  5
356
102
{ACAD_REACTORS
330
359
102
}
330
32D
100
AcDbEntity
  8
R-SWTS-PAT2
  6
Continuous
 62
     6
100
AcDbLine
 10
-0.0301776695296634
 20
0.0074999999999994
 30
0.0
 11
-0.0941740410091869
 21
0.0074999999999994
 31
0.0
  0
HATCH
  5
357
330
32D
100
AcDbEntity
  8
R-SWTS-OTLN
  6
Continuous
 62
     6
100
AcDbHatch
 10
0.0
 20
0.0
 30
0.0
210
0.0
220
0.0
230
1.0
  2
SOLID
 70
     1
 71
     1
 91
        1
 92
        7
 72
     1
 73
     1
 93
        6
 10
-0.0612878021504372
 20
-0.0718944038682352
 42
0.4534141234453476
 10
-0.0607918613100047
 20
-0.0793999344991239
 42
0.1311123756655101
 10
-0.0131578947368419
 20
-0.0991305694833546
 42
0.4534141234453685
 10
-0.0074999999999998
 20
-0.0941740410091869
 42
0.0
 10
-0.0074999999999998
 20
-0.0301776695296638
 42
0.6681786379193112
 10
-0.0160355339059326
 20
-0.026642135623731
 42
0.0
 97
        6
330
33E
330
352
330
34E
330
351
330
343
330
348
 75
     0
 76
     1
 47
0.0008898326864094
 98
        1
 10
-0.0232853322002938
 20
-0.0491183732070368
450
        0
451
        0
460
0.0
461
0.0
452
        1
462
0.0
453
        0
470

  0
HATCH
  5
358
330
32D
100
AcDbEntity
  8
R-SWTS-PAT1
  6
Continuous
 62
     6
100
AcDbHatch
 10
0.0
 20
0.0
 30
0.0
210
0.0
220
0.0
230
1.0
  2
SOLID
 70
     1
 71
     1
 91
        1
 92
        7
 72
     1
 73
     1
 93
        6
 10
-0.0941740410091869
 20
-0.0075000000000003
 42
0.4534141234453669
 10
-0.0991305694833545
 20
-0.0131578947368424
 42
0.1311123756655093
 10
-0.0793999344991238
 20
-0.0607918613100047
 42
0.453414123445337
 10
-0.0718944038682353
 20
-0.0612878021504369
 42
0.0
 10
-0.0266421356237306
 20
-0.0160355339059331
 42
0.6681786379192967
 10
-0.0301776695296631
 20
-0.0075000000000003
 42
0.0
 97
        6
330
354
330
34B
330
350
330
34F
330
353
330
33D
 75
     0
 76
     1
 47
0.0008898326864094
 98
        1
 10
-0.0606927519483949
 20
-0.0161945603424947
450
        0
451
        0
460
0.0
461
0.0
452
        1
462
0.0
453
        0
470

  0
HATCH
  5
359
330
32D
100
AcDbEntity
  8
R-SWTS-PAT2
  6
Continuous
 62
     6
100
AcDbHatch
 10
0.0
 20
0.0
 30
0.0
210
0.0
220
0.0
230
1.0
  2
SOLID
 70
     1
 71
     1
 91
        1
 92
        7
 72
     1
 73
     1
 93
        6
 10
-0.0991305694833546
 20
0.0131578947368414
 42
0.4534141234453686
 10
-0.094174041009187
 20
0.0074999999999994
 42
0.0
 10
-0.0301776695296634
 20
0.0074999999999994
 42
0.6681786379193361
 10
-0.0266421356237305
 20
0.0160355339059322
 42
0.0
 10
-0.071894403868235
 20
0.0612878021504366
 42
0.4534141234454016
 10
-0.0793999344991243
 20
0.0607918613100043
 42
0.13111237566551
 97
        6
330
34A
330
34D
330
34C
330
356
330
33F
330
355
 75
     0
 76
     1
 47
0.0008898326864094
 98
        1
 10
-0.0865216783395087
 20
0.0300767364260093
450
        0
451
        0
460
0.0
461
0.0
452
        1
462
0.0
453
        0
470

  0
LINE
  5
35A
102
{ACAD_REACTORS
330
35F
102
}
330
32D
100
AcDbEntity
  8
R-ANNO-TEXT
  6
Continuous
 62
     6
100
AcDbLine
 10
0.0160355339059328
 20
0.0266421356237308
 30
0.0
 11
0.0612878021504373
 21
0.0718944038682348
 31
0.0
  0
LINE
  5
35B
102
{ACAD_REACTORS
330
35F
102
}
330
32D
100
AcDbEntity
  8
R-ANNO-TEXT
  6
Continuous
 62
     6
100
AcDbLine
 10
0.0074999999999998
 20
0.0301776695296634
 30
0.0
 11
0.0074999999999998
 21
0.0941740410091869
 31
0.0
  0
LINE
  5
35C
102
{ACAD_REACTORS
330
35E
102
}
330
32D
100
AcDbEntity
  8
R-ANNO-DIMS
  6
Continuous
 62
     6
100
AcDbLine
 10
-0.0074999999999998
 20
0.030177669529663
 30
0.0
 11
-0.0074999999999998
 21
0.0941740410091869
 31
0.0
  0
LINE
  5
35D
102
{ACAD_REACTORS
330
35E
102
}
330
32D
100
AcDbEntity
  8
R-ANNO-DIMS
  6
Continuous
 62
     6
100
AcDbLine
 10
-0.0160355339059324
 20
0.0266421356237303
 30
0.0
 11
-0.0612878021504373
 21
0.0718944038682348
 31
0.0
  0
HATCH
  5
35E
330
32D
100
AcDbEntity
  8
R-ANNO-DIMS
  6
Continuous
 62
     6
100
AcDbHatch
 10
0.0
 20
0.0
 30
0.0
210
0.0
220
0.0
230
1.0
  2
SOLID
 70
     1
 71
     1
 91
        1
 92
        7
 72
     1
 73
     1
 93
        6
 10
-0.0074999999999998
 20
0.0941740410091869
 42
0.4534141234453656
 10
-0.0131578947368419
 20
0.0991305694833545
 42
0.1311123756655101
 10
-0.0607918613100047
 20
0.0793999344991241
 42
0.4534141234453891
 10
-0.0612878021504375
 20
0.071894403868235
 42
0.0
 10
-0.0160355339059324
 20
0.0266421356237303
 42
0.6681786379192679
 10
-0.0074999999999998
 20
0.0301776695296632
 42
0.0
 97
        6
330
332
330
335
330
334
330
35D
330
33B
330
35C
 75
     0
 76
     1
 47
0.0008898326864094
 98
        1
 10
-0.0286292493071659
 20
0.0718988763663955
450
        0
451
        0
460
0.0
461
0.0
452
        1
462
0.0
453
        0
470

  0
HATCH
  5
35F
330
32D
100
AcDbEntity
  8
R-ANNO-TEXT
  6
Continuous
 62
     6
100
AcDbHatch
 10
0.0
 20
0.0
 30
0.0
210
0.0
220
0.0
230
1.0
  2
SOLID
 70
     1
 71
     1
 91
        1
 92
        7
 72
     1
 73
     1
 93
        6
 10
0.061287802150437
 20
0.0718944038682345
 42
0.4534141234454016
 10
0.0607918613100048
 20
0.0793999344991239
 42
0.1311123756655107
 10
0.0131578947368418
 20
0.0991305694833545
 42
0.453414123445365
 10
0.0074999999999998
 20
0.0941740410091868
 42
0.0
 10
0.0074999999999998
 20
0.0301776695296634
 42
0.6681786379193165
 10
0.0160355339059327
 20
0.0266421356237305
 42
0.0
 97
        6
330
330
330
333
330
331
330
35B
330
33A
330
35A
 75
     0
 76
     1
 47
0.0008898326864094
 98
        1
 10
0.0328257911297578
 20
0.0701192082673048
450
        0
451
        0
460
0.0
461
0.0
452
        1
462
0.0
453
        0
470

  0
ARC
  5
360
102
{ACAD_REACTORS
330
364
102
}
330
32D
100
AcDbEntity
  8
R-SWTS-DET1
  6
Continuous
 62
     6
100
AcDbCircle
 10
0.0
 20
0.0
 30
0.0
 40
0.1
100
AcDbArc
 50
7.560843176671929
 51
37.43915682332803
  0
LINE
  5
361
102
{ACAD_REACTORS
330
364
102
}
330
32D
100
AcDbEntity
  8
R-SWTS-DET1
  6
Continuous
 62
     6
100
AcDbLine
 10
0.0301776695296641
 20
0.0074999999999994
 30
0.0
 11
0.0941740410091869
 21
0.0074999999999994
 31
0.0
  0
ARC
  5
362
102
{ACAD_REACTORS
330
365
102
}
330
32D
100
AcDbEntity
  8
R-SWTS-DET2
  6
Continuous
 62
     6
100
AcDbCircle
 10
0.0
 20
0.0
 30
0.0
 40
0.1
100
AcDbArc
 50
322.5608431766719
 51
352.439156823328
  0
LINE
  5
363
102
{ACAD_REACTORS
330
365
102
}
330
32D
100
AcDbEntity
  8
R-SWTS-DET2
  6
Continuous
 62
     6
100
AcDbLine
 10
0.0301776695296634
 20
-0.0075000000000003
 30
0.0
 11
0.0941740410091869
 21
-0.0075000000000003
 31
0.0
  0
HATCH
  5
364
330
32D
100
AcDbEntity
  8
R-SWTS-DET1
  6
Continuous
 62
     6
100
AcDbHatch
 10
0.0
 20
0.0
 30
0.0
210
0.0
220
0.0
230
1.0
  2
SOLID
 70
     1
 71
     1
 91
        1
 92
        7
 72
     1
 73
     1
 93
        6
 10
0.0793999344991241
 20
0.0607918613100045
 42
0.4534141234453706
 10
0.0718944038682352
 20
0.0612878021504371
 42
0.0
 10
0.0266421356237311
 20
0.0160355339059331
 42
0.6681786379194726
 10
0.0301776695296636
 20
0.0074999999999994
 42
0.0
 10
0.094174041009187
 20
0.0074999999999994
 42
0.4534141234453691
 10
0.0991305694833546
 20
0.0131578947368414
 42
0.1311123756655111
 97
        6
330
336
330
337
330
339
330
361
330
32E
330
360
 75
     0
 76
     1
 47
0.0008898326864094
 98
        1
 10
0.0827023382096958
 20
0.0318564045251
450
        0
451
        0
460
0.0
461
0.0
452
        1
462
0.0
453
        0
470

  0
HATCH
  5
365
330
32D
100
AcDbEntity
  8
R-SWTS-DET2
  6
Continuous
 62
     6
100
AcDbHatch
 10
0.0
 20
0.0
 30
0.0
210
0.0
220
0.0
230
1.0
  2
SOLID
 70
     1
 71
     1
 91
        1
 92
        7
 72
     1
 73
     1
 93
        6
 10
0.0991305694833546
 20
-0.0131578947368423
 42
0.4534141234453724
 10
0.0941740410091869
 20
-0.0075000000000003
 42
0.0
 10
0.0301776695296634
 20
-0.0075000000000003
 42
0.6681786379192715
 10
0.0266421356237308
 20
-0.0160355339059328
 42
0.0
 10
0.0718944038682351
 20
-0.0612878021504375
 42
0.4534141234453565
 10
0.0793999344991239
 20
-0.0607918613100047
 42
0.1311123756655093
 97
        6
330
32F
330
363
330
338
330
345
330
340
330
362
 75
     0
 76
     1
 47
0.0008898326864094
 98
        1
 10
0.0889369144598111
 20
-0.0250928874183378
450
        0
451
        0
460
0.0
461
0.0
452
        1
462
0.0
453
        0
470

  0
MTEXT
  5
366
330
32D
100
AcDbEntity
  8
R-SWTS-PAT3
  6
Continuous
 62
     6
100
AcDbMText
 10
0.1939806497453276
 20
0.0
 30
0.0
 40
0.15
 41
0.9182999999999999
 71
     4
 72
     5
  1
{\fArial|b1|i0|c0|p34;PEMKO}
  7
SWTSTEXT
 73
     1
 44
1.0
  0
ENDBLK
  5
368
330
32D
100
AcDbEntity
  8
0
100
AcDbBlockEnd
  0
BLOCK
  5
5BE
330
500
100
AcDbEntity
  8
0
100
AcDbBlockBegin
  2
10x075CountersunkMachineScrew - Phillips
 70
     0
 10
0.0
 20
0.0
 30
0.0
  3
10x075CountersunkMachineScrew - Phillips
  1

  0
LINE
  5
501
330
500
100
AcDbEntity
  8
0
100
AcDbLine
 10
-0.5011356417377697
 20
0.0950000000000055
 30
0.0
 11
-0.5154539284136779
 21
0.0701999999999967
 31
0.0
  0
LINE
  5
502
330
500
100
AcDbEntity
  8
0
100
AcDbLine
 10
-0.5000000000000014
 20
-0.0701999999999941
 30
0.0
 11
-0.5080300933148743
 21
-0.0701999999999941
 31
0.0
  0
LINE
  5
503
330
500
100
AcDbEntity
  8
0
100
AcDbLine
 10
-0.5000000000000103
 20
-0.070199999999979
 30
0.0
 11
-0.5154539284136779
 21
0.0701999999999958
 31
0.0
  0
LINE
  5
504
330
500
100
AcDbEntity
  8
0
100
AcDbLine
 10
-0.508030093314861
 20
-0.0701999999999719
 30
0.0
 11
-0.5234840217285269
 21
0.0702000000000012
 31
0.0
  0
LINE
  5
505
330
500
100
AcDbEntity
  8
0
100
AcDbLine
 10
-0.5416666666666763
 20
-0.0701999999999719
 30
0.0
 11
-0.557120595080344
 21
0.0702000000000029
 31
0.0
  0
LINE
  5
506
330
500
100
AcDbEntity
  8
0
100
AcDbLine
 10
-0.5223483799907683
 20
-0.0949999999999807
 30
0.0
 11
-0.5378023084044359
 21
0.0950000000000135
 31
0.0
  0
LINE
  5
507
330
500
100
AcDbEntity
  8
0
100
AcDbLine
 10
-0.5273483799907682
 20
-0.0949999999999807
 30
0.0
 11
-0.5428023084044358
 21
0.0950000000000135
 31
0.0
  0
LINE
  5
508
330
500
100
AcDbEntity
  8
0
100
AcDbLine
 10
-0.5496967599815262
 20
-0.0701999999999719
 30
0.0
 11
-0.565150688395192
 21
0.0702000000000012
 31
0.0
  0
LINE
  5
509
330
500
100
AcDbEntity
  8
0
100
AcDbLine
 10
-0.5833333333333415
 20
-0.0701999999999719
 30
0.0
 11
-0.5987872617470092
 21
0.0702000000000029
 31
0.0
  0
LINE
  5
50A
330
500
100
AcDbEntity
  8
0
100
AcDbLine
 10
-0.5640150466574334
 20
-0.0949999999999807
 30
0.0
 11
-0.5794689750711011
 21
0.0950000000000135
 31
0.0
  0
LINE
  5
50B
330
500
100
AcDbEntity
  8
0
100
AcDbLine
 10
-0.5690150466574333
 20
-0.0949999999999807
 30
0.0
 11
-0.584468975071101
 21
0.0950000000000135
 31
0.0
  0
LINE
  5
50C
330
500
100
AcDbEntity
  8
0
100
AcDbLine
 10
-0.5913634266481913
 20
-0.0701999999999719
 30
0.0
 11
-0.6068173550618572
 21
0.0702000000000012
 31
0.0
  0
LINE
  5
50D
330
500
100
AcDbEntity
  8
0
100
AcDbLine
 10
-0.6056817133240986
 20
-0.0949999999999807
 30
0.0
 11
-0.6211356417377663
 21
0.0950000000000135
 31
0.0
  0
LINE
  5
50E
330
500
100
AcDbEntity
  8
0
100
AcDbLine
 10
-0.6106817133240985
 20
-0.0949999999999807
 30
0.0
 11
-0.6261356417377662
 21
0.0950000000000135
 31
0.0
  0
LINE
  5
50F
330
500
100
AcDbEntity
  8
0
100
AcDbLine
 10
-0.7499999999999996
 20
0.0702000000000021
 30
0.0
 11
-0.7500000000000005
 21
-0.0701999999999772
 31
0.0
  0
LINE
  5
510
330
500
100
AcDbEntity
  8
0
100
AcDbLine
 10
-0.6330300933148565
 20
-0.0701999999999719
 30
0.0
 11
-0.6484840217285224
 21
0.0702000000000012
 31
0.0
  0
LINE
  5
511
330
500
100
AcDbEntity
  8
0
100
AcDbLine
 10
-0.6666666666666719
 20
-0.0701999999999719
 30
0.0
 11
-0.6821205950803395
 21
0.0702000000000029
 31
0.0
  0
LINE
  5
512
330
500
100
AcDbEntity
  8
0
100
AcDbLine
 10
-0.6473483799907638
 20
-0.0949999999999807
 30
0.0
 11
-0.6628023084044315
 21
0.0950000000000135
 31
0.0
  0
LINE
  5
513
330
500
100
AcDbEntity
  8
0
100
AcDbLine
 10
-0.6523483799907637
 20
-0.0949999999999807
 30
0.0
 11
-0.6678023084044314
 21
0.0950000000000135
 31
0.0
  0
LINE
  5
514
330
500
100
AcDbEntity
  8
0
100
AcDbLine
 10
-0.7083333333333371
 20
-0.0701999999999719
 30
0.0
 11
-0.7237872617470047
 21
0.0702000000000029
 31
0.0
  0
LINE
  5
515
330
500
100
AcDbEntity
  8
0
100
AcDbLine
 10
-0.6940150466574289
 20
-0.0949999999999807
 30
0.0
 11
-0.7094689750710966
 21
0.0950000000000135
 31
0.0
  0
LINE
  5
516
330
500
100
AcDbEntity
  8
0
100
AcDbLine
 10
-0.689015046657429
 20
-0.0949999999999807
 30
0.0
 11
-0.7044689750710967
 21
0.0950000000000135
 31
0.0
  0
LINE
  5
517
330
500
100
AcDbEntity
  8
0
100
AcDbLine
 10
-0.6746967599815217
 20
-0.0701999999999719
 30
0.0
 11
-0.6901506883951876
 21
0.0702000000000012
 31
0.0
  0
LINE
  5
518
330
500
100
AcDbEntity
  8
0
100
AcDbLine
 10
-0.7356817133240941
 20
-0.0949999999999807
 30
0.0
 11
-0.7456551726219796
 21
0.0276197776949991
 31
0.0
  0
LINE
  5
519
330
500
100
AcDbEntity
  8
0
100
AcDbLine
 10
-0.7306817133240942
 20
-0.0949999999999807
 30
0.0
 11
-0.7410015088643003
 21
0.0318778462119389
 31
0.0
  0
LINE
  5
51A
330
500
100
AcDbEntity
  8
0
100
AcDbLine
 10
-0.7163634266481869
 20
-0.0701999999999719
 30
0.0
 11
-0.7447721596343455
 21
0.0475000000000168
 31
0.0
  0
LINE
  5
51B
330
500
100
AcDbEntity
  8
0
100
AcDbLine
 10
-0.7500000000000023
 20
-0.0701999999999719
 30
0.0
 11
-0.7447721596343455
 21
0.0475000000000168
 31
0.0
  0
LINE
  5
51C
330
500
100
AcDbEntity
  8
0
100
AcDbLine
 10
-0.6250000000000067
 20
-0.0701999999999719
 30
0.0
 11
-0.6404539284136744
 21
0.0702000000000029
 31
0.0
  0
LINE
  5
51D
330
500
100
AcDbEntity
  8
0
100
AcDbLine
 10
-0.689015046657429
 20
-0.0949999999999807
 30
0.0
 11
-0.6746967599815217
 21
-0.0701999999999719
 31
0.0
  0
LINE
  5
51E
330
500
100
AcDbEntity
  8
0
100
AcDbLine
 10
-0.7306817133240942
 20
-0.0949999999999807
 30
0.0
 11
-0.7163634266481869
 21
-0.0701999999999719
 31
0.0
  0
LINE
  5
51F
330
500
100
AcDbEntity
  8
0
100
AcDbLine
 10
-0.7306817133240942
 20
-0.0949999999999825
 30
0.0
 11
-0.7356817133240932
 21
-0.0949999999999825
 31
0.0
  0
LINE
  5
520
330
500
100
AcDbEntity
  8
0
100
AcDbLine
 10
-0.7356817133240941
 20
-0.0949999999999807
 30
0.0
 11
-0.7500000000000023
 21
-0.0701999999999719
 31
0.0
  0
LINE
  5
521
330
500
100
AcDbEntity
  8
0
100
AcDbLine
 10
-0.6890150466574308
 20
-0.0949999999999833
 30
0.0
 11
-0.6940150466574271
 21
-0.0949999999999833
 31
0.0
  0
LINE
  5
522
330
500
100
AcDbEntity
  8
0
100
AcDbLine
 10
-0.7083333333333238
 20
-0.0701999999999967
 30
0.0
 11
-0.7163634266482011
 21
-0.0701999999999967
 31
0.0
  0
LINE
  5
523
330
500
100
AcDbEntity
  8
0
100
AcDbLine
 10
-0.6940150466574289
 20
-0.0949999999999807
 30
0.0
 11
-0.7083333333333371
 21
-0.0701999999999719
 31
0.0
  0
LINE
  5
524
330
500
100
AcDbEntity
  8
0
100
AcDbLine
 10
-0.6056817133240986
 20
-0.0949999999999807
 30
0.0
 11
-0.5913634266481913
 21
-0.0701999999999719
 31
0.0
  0
LINE
  5
525
330
500
100
AcDbEntity
  8
0
100
AcDbLine
 10
-0.6473483799907638
 20
-0.0949999999999807
 30
0.0
 11
-0.6330300933148565
 21
-0.0701999999999719
 31
0.0
  0
LINE
  5
526
330
500
100
AcDbEntity
  8
0
100
AcDbLine
 10
-0.6473483799907665
 20
-0.0949999999999842
 30
0.0
 11
-0.6523483799907602
 21
-0.0949999999999842
 31
0.0
  0
LINE
  5
527
330
500
100
AcDbEntity
  8
0
100
AcDbLine
 10
-0.6666666666666568
 20
-0.0701999999999967
 30
0.0
 11
-0.6746967599815368
 21
-0.0701999999999967
 31
0.0
  0
LINE
  5
528
330
500
100
AcDbEntity
  8
0
100
AcDbLine
 10
-0.6523483799907637
 20
-0.0949999999999807
 30
0.0
 11
-0.6666666666666719
 21
-0.0701999999999719
 31
0.0
  0
LINE
  5
529
330
500
100
AcDbEntity
  8
0
100
AcDbLine
 10
-0.6056817133241013
 20
-0.094999999999986
 30
0.0
 11
-0.6106817133240959
 21
-0.0949999999999869
 31
0.0
  0
LINE
  5
52A
330
500
100
AcDbEntity
  8
0
100
AcDbLine
 10
-0.6106817133240985
 20
-0.0949999999999807
 30
0.0
 11
-0.6250000000000067
 21
-0.0701999999999719
 31
0.0
  0
LINE
  5
52B
330
500
100
AcDbEntity
  8
0
100
AcDbLine
 10
-0.6249999999999925
 20
-0.0701999999999958
 30
0.0
 11
-0.6330300933148707
 21
-0.0701999999999967
 31
0.0
  0
LINE
  5
52C
330
500
100
AcDbEntity
  8
0
100
AcDbLine
 10
-0.5640150466574334
 20
-0.0949999999999807
 30
0.0
 11
-0.5496967599815262
 21
-0.0701999999999719
 31
0.0
  0
LINE
  5
52D
330
500
100
AcDbEntity
  8
0
100
AcDbLine
 10
-0.5640150466574352
 20
-0.094999999999986
 30
0.0
 11
-0.5690150466574298
 21
-0.0949999999999869
 31
0.0
  0
LINE
  5
52E
330
500
100
AcDbEntity
  8
0
100
AcDbLine
 10
-0.5690150466574333
 20
-0.0949999999999807
 30
0.0
 11
-0.5833333333333415
 21
-0.0701999999999719
 31
0.0
  0
LINE
  5
52F
330
500
100
AcDbEntity
  8
0
100
AcDbLine
 10
-0.5833333333333282
 20
-0.0701999999999958
 30
0.0
 11
-0.5913634266482047
 21
-0.0701999999999958
 31
0.0
  0
LINE
  5
530
330
500
100
AcDbEntity
  8
0
100
AcDbLine
 10
-0.5223483799907683
 20
-0.0949999999999807
 30
0.0
 11
-0.508030093314861
 21
-0.0701999999999719
 31
0.0
  0
LINE
  5
531
330
500
100
AcDbEntity
  8
0
100
AcDbLine
 10
-0.5223483799907736
 20
-0.0949999999999878
 30
0.0
 11
-0.5273483799907637
 21
-0.0949999999999878
 31
0.0
  0
LINE
  5
532
330
500
100
AcDbEntity
  8
0
100
AcDbLine
 10
-0.5273483799907682
 20
-0.0949999999999807
 30
0.0
 11
-0.5416666666666763
 21
-0.0701999999999719
 31
0.0
  0
LINE
  5
533
330
500
100
AcDbEntity
  8
0
100
AcDbLine
 10
-0.5416666666666639
 20
-0.0701999999999941
 30
0.0
 11
-0.5496967599815395
 21
-0.0701999999999949
 31
0.0
  0
LINE
  5
534
330
500
100
AcDbEntity
  8
0
100
AcDbLine
 10
-0.6678023084044314
 20
0.0950000000000127
 30
0.0
 11
-0.6821205950803395
 21
0.0702000000000038
 31
0.0
  0
LINE
  5
535
330
500
100
AcDbEntity
  8
0
100
AcDbLine
 10
-0.7237872617470047
 20
0.0702000000000029
 30
0.0
 11
-0.7499999999999996
 21
0.0702000000000029
 31
0.0
  0
LINE
  5
536
330
500
100
AcDbEntity
  8
0
100
AcDbLine
 10
-0.6821205950803395
 20
0.0702000000000029
 30
0.0
 11
-0.6901506883951876
 21
0.0702000000000029
 31
0.0
  0
LINE
  5
537
330
500
100
AcDbEntity
  8
0
100
AcDbLine
 10
-0.7044689750710967
 20
0.0950000000000135
 30
0.0
 11
-0.7094689750710957
 21
0.0950000000000144
 31
0.0
  0
LINE
  5
538
330
500
100
AcDbEntity
  8
0
100
AcDbLine
 10
-0.7044689750710967
 20
0.0950000000000127
 30
0.0
 11
-0.6901506883951894
 21
0.0702000000000038
 31
0.0
  0
LINE
  5
539
330
500
100
AcDbEntity
  8
0
100
AcDbLine
 10
-0.7094689750710966
 20
0.0950000000000127
 30
0.0
 11
-0.7237872617470047
 21
0.0702000000000038
 31
0.0
  0
LINE
  5
53A
330
500
100
AcDbEntity
  8
0
100
AcDbLine
 10
-0.584468975071101
 20
0.0950000000000127
 30
0.0
 11
-0.5987872617470092
 21
0.0702000000000038
 31
0.0
  0
LINE
  5
53B
330
500
100
AcDbEntity
  8
0
100
AcDbLine
 10
-0.6261356417377662
 20
0.0950000000000127
 30
0.0
 11
-0.6404539284136744
 21
0.0702000000000038
 31
0.0
  0
LINE
  5
53C
330
500
100
AcDbEntity
  8
0
100
AcDbLine
 10
-0.6628023084044297
 20
0.0950000000000127
 30
0.0
 11
-0.6678023084044314
 21
0.0950000000000127
 31
0.0
  0
LINE
  5
53D
330
500
100
AcDbEntity
  8
0
100
AcDbLine
 10
-0.6404539284136752
 20
0.0702000000000021
 30
0.0
 11
-0.6484840217285224
 21
0.0702000000000021
 31
0.0
  0
LINE
  5
53E
330
500
100
AcDbEntity
  8
0
100
AcDbLine
 10
-0.6628023084044315
 20
0.0950000000000127
 30
0.0
 11
-0.6484840217285242
 21
0.0702000000000038
 31
0.0
  0
LINE
  5
53F
330
500
100
AcDbEntity
  8
0
100
AcDbLine
 10
-0.6211356417377663
 20
0.0950000000000118
 30
0.0
 11
-0.6261356417377671
 21
0.0950000000000127
 31
0.0
  0
LINE
  5
540
330
500
100
AcDbEntity
  8
0
100
AcDbLine
 10
-0.598787261747011
 20
0.0702000000000021
 30
0.0
 11
-0.6068173550618563
 21
0.0702000000000021
 31
0.0
  0
LINE
  5
541
330
500
100
AcDbEntity
  8
0
100
AcDbLine
 10
-0.6211356417377663
 20
0.0950000000000127
 30
0.0
 11
-0.606817355061859
 21
0.0702000000000038
 31
0.0
  0
LINE
  5
542
330
500
100
AcDbEntity
  8
0
100
AcDbLine
 10
-0.5428023084044358
 20
0.0950000000000127
 30
0.0
 11
-0.557120595080344
 21
0.0702000000000038
 31
0.0
  0
LINE
  5
543
330
500
100
AcDbEntity
  8
0
100
AcDbLine
 10
-0.5794689750710984
 20
0.09500000000001
 30
0.0
 11
-0.5844689750711019
 21
0.0950000000000118
 31
0.0
  0
LINE
  5
544
330
500
100
AcDbEntity
  8
0
100
AcDbLine
 10
-0.557120595080344
 20
0.0702000000000021
 30
0.0
 11
-0.5651506883951912
 21
0.0702000000000021
 31
0.0
  0
LINE
  5
545
330
500
100
AcDbEntity
  8
0
100
AcDbLine
 10
-0.5794689750711011
 20
0.0950000000000127
 30
0.0
 11
-0.5651506883951938
 21
0.0702000000000038
 31
0.0
  0
LINE
  5
546
330
500
100
AcDbEntity
  8
0
100
AcDbLine
 10
-0.5154539284136744
 20
0.0702000000000029
 30
0.0
 11
-0.5234840217285286
 21
0.0702000000000021
 31
0.0
  0
LINE
  5
547
330
500
100
AcDbEntity
  8
0
100
AcDbLine
 10
-0.5378023084044359
 20
0.0950000000000127
 30
0.0
 11
-0.5234840217285286
 21
0.0702000000000038
 31
0.0
  0
LINE
  5
548
330
500
100
AcDbEntity
  8
0
100
AcDbLine
 10
-0.5378023084044341
 20
0.0950000000000091
 30
0.0
 11
-0.5428023084044385
 21
0.0950000000000091
 31
0.0
  0
LINE
  5
549
330
500
100
AcDbEntity
  8
0
100
AcDbLine
 10
-0.1160000000000002
 20
-0.0296137473032733
 30
0.0
 11
-0.1261356417378092
 21
0.0950000000000002
 31
0.0
  0
LINE
  5
54A
330
500
100
AcDbEntity
  8
0
100
AcDbLine
 10
-0.133030093314893
 20
-0.0701999999999852
 30
0.0
 11
-0.1484840217285589
 21
0.0701999999999878
 31
0.0
  0
LINE
  5
54B
330
500
100
AcDbEntity
  8
0
100
AcDbLine
 10
-0.1250000000000512
 20
-0.0701999999999719
 30
0.0
 11
-0.1404539284137188
 21
0.0702000000000029
 31
0.0
  0
LINE
  5
54C
330
500
100
AcDbEntity
  8
0
100
AcDbLine
 10
-0.1523483799908002
 20
-0.094999999999994
 30
0.0
 11
-0.1678023084044679
 21
0.0950000000000002
 31
0.0
  0
LINE
  5
54D
330
500
100
AcDbEntity
  8
0
100
AcDbLine
 10
-0.1473483799908003
 20
-0.094999999999994
 30
0.0
 11
-0.162802308404468
 21
0.0950000000000002
 31
0.0
  0
LINE
  5
54E
330
500
100
AcDbEntity
  8
0
100
AcDbLine
 10
-0.1746967599815516
 20
-0.0701999999999852
 30
0.0
 11
-0.1901506883952175
 21
0.0701999999999878
 31
0.0
  0
LINE
  5
54F
330
500
100
AcDbEntity
  8
0
100
AcDbLine
 10
-0.1666666666667098
 20
-0.0701999999999719
 30
0.0
 11
-0.1821205950803775
 21
0.0702000000000029
 31
0.0
  0
LINE
  5
550
330
500
100
AcDbEntity
  8
0
100
AcDbLine
 10
-0.1940150466574588
 20
-0.094999999999994
 30
0.0
 11
-0.2094689750711265
 21
0.0950000000000002
 31
0.0
  0
LINE
  5
551
330
500
100
AcDbEntity
  8
0
100
AcDbLine
 10
-0.1890150466574589
 20
-0.094999999999994
 30
0.0
 11
-0.2044689750711266
 21
0.0950000000000002
 31
0.0
  0
LINE
  5
552
330
500
100
AcDbEntity
  8
0
100
AcDbLine
 10
-0.2163634266482103
 20
-0.0701999999999852
 30
0.0
 11
-0.2318173550618762
 21
0.0701999999999878
 31
0.0
  0
LINE
  5
553
330
500
100
AcDbEntity
  8
0
100
AcDbLine
 10
-0.2083333333333685
 20
-0.0701999999999719
 30
0.0
 11
-0.2237872617470361
 21
0.0702000000000029
 31
0.0
  0
LINE
  5
554
330
500
100
AcDbEntity
  8
0
100
AcDbLine
 10
-0.2356817133241175
 20
-0.094999999999994
 30
0.0
 11
-0.2511356417377851
 21
0.0950000000000002
 31
0.0
  0
LINE
  5
555
330
500
100
AcDbEntity
  8
0
100
AcDbLine
 10
-0.2306817133241176
 20
-0.094999999999994
 30
0.0
 11
-0.2461356417377853
 21
0.0950000000000002
 31
0.0
  0
LINE
  5
556
330
500
100
AcDbEntity
  8
0
100
AcDbLine
 10
-0.1160000000000001
 20
0.0950000000000029
 30
0.0
 11
-0.1160000000000001
 21
-0.0949999999999967
 31
0.0
  0
LINE
  5
557
330
500
100
AcDbEntity
  8
0
100
AcDbLine
 10
-0.3830300933148645
 20
-0.0701999999999816
 30
0.0
 11
-0.3984840217285304
 21
0.0701999999999914
 31
0.0
  0
LINE
  5
558
330
500
100
AcDbEntity
  8
0
100
AcDbLine
 10
-0.4166666666666799
 20
-0.0701999999999816
 30
0.0
 11
-0.4321205950803475
 21
0.0701999999999932
 31
0.0
  0
LINE
  5
559
330
500
100
AcDbEntity
  8
0
100
AcDbLine
 10
-0.3973483799907718
 20
-0.0949999999999904
 30
0.0
 11
-0.4128023084044395
 21
0.0950000000000038
 31
0.0
  0
LINE
  5
55A
330
500
100
AcDbEntity
  8
0
100
AcDbLine
 10
-0.4023483799907717
 20
-0.0949999999999904
 30
0.0
 11
-0.4178023084044394
 21
0.0950000000000038
 31
0.0
  0
LINE
  5
55B
330
500
100
AcDbEntity
  8
0
100
AcDbLine
 10
-0.4246967599815297
 20
-0.070199999999979
 30
0.0
 11
-0.4401506883951956
 21
0.0701999999999941
 31
0.0
  0
LINE
  5
55C
330
500
100
AcDbEntity
  8
0
100
AcDbLine
 10
-0.4583333333333451
 20
-0.070199999999979
 30
0.0
 11
-0.4737872617470127
 21
0.0701999999999958
 31
0.0
  0
LINE
  5
55D
330
500
100
AcDbEntity
  8
0
100
AcDbLine
 10
-0.439015046657437
 20
-0.0949999999999878
 30
0.0
 11
-0.4544689750711047
 21
0.0950000000000064
 31
0.0
  0
LINE
  5
55E
330
500
100
AcDbEntity
  8
0
100
AcDbLine
 10
-0.4440150466574369
 20
-0.0949999999999878
 30
0.0
 11
-0.4594689750711046
 21
0.0950000000000064
 31
0.0
  0
LINE
  5
55F
330
500
100
AcDbEntity
  8
0
100
AcDbLine
 10
-0.4663634266481949
 20
-0.070199999999979
 30
0.0
 11
-0.4818173550618608
 21
0.0701999999999941
 31
0.0
  0
LINE
  5
560
330
500
100
AcDbEntity
  8
0
100
AcDbLine
 10
-0.4806817133241022
 20
-0.0949999999999878
 30
0.0
 11
-0.4961356417377698
 21
0.0950000000000064
 31
0.0
  0
LINE
  5
561
330
500
100
AcDbEntity
  8
0
100
AcDbLine
 10
-0.4856817133241021
 20
-0.0949999999999878
 30
0.0
 11
-0.5011356417377697
 21
0.0950000000000064
 31
0.0
  0
LINE
  5
562
330
500
100
AcDbEntity
  8
0
100
AcDbLine
 10
-0.2500000000000271
 20
-0.0701999999999719
 30
0.0
 11
-0.2654539284136947
 21
0.0702000000000029
 31
0.0
  0
LINE
  5
563
330
500
100
AcDbEntity
  8
0
100
AcDbLine
 10
-0.2580300933148689
 20
-0.0701999999999852
 30
0.0
 11
-0.2734840217285348
 21
0.0701999999999878
 31
0.0
  0
LINE
  5
564
330
500
100
AcDbEntity
  8
0
100
AcDbLine
 10
-0.2916666666666843
 20
-0.0701999999999852
 30
0.0
 11
-0.3071205950803519
 21
0.0701999999999896
 31
0.0
  0
LINE
  5
565
330
500
100
AcDbEntity
  8
0
100
AcDbLine
 10
-0.2723483799907762
 20
-0.094999999999994
 30
0.0
 11
-0.2878023084044439
 21
0.0950000000000002
 31
0.0
  0
LINE
  5
566
330
500
100
AcDbEntity
  8
0
100
AcDbLine
 10
-0.2773483799907761
 20
-0.094999999999994
 30
0.0
 11
-0.2928023084044438
 21
0.0950000000000002
 31
0.0
  0
LINE
  5
567
330
500
100
AcDbEntity
  8
0
100
AcDbLine
 10
-0.2996967599815341
 20
-0.0701999999999834
 30
0.0
 11
-0.3151506883952
 21
0.0701999999999896
 31
0.0
  0
LINE
  5
568
330
500
100
AcDbEntity
  8
0
100
AcDbLine
 10
-0.3333333333333495
 20
-0.0701999999999834
 30
0.0
 11
-0.3487872617470171
 21
0.0701999999999914
 31
0.0
  0
LINE
  5
569
330
500
100
AcDbEntity
  8
0
100
AcDbLine
 10
-0.3140150466574414
 20
-0.0949999999999922
 30
0.0
 11
-0.3294689750711091
 21
0.095000000000002
 31
0.0
  0
LINE
  5
56A
330
500
100
AcDbEntity
  8
0
100
AcDbLine
 10
-0.3190150466574413
 20
-0.0949999999999922
 30
0.0
 11
-0.3344689750711089
 21
0.095000000000002
 31
0.0
  0
LINE
  5
56B
330
500
100
AcDbEntity
  8
0
100
AcDbLine
 10
-0.3413634266481993
 20
-0.0701999999999825
 30
0.0
 11
-0.3568173550618652
 21
0.0701999999999905
 31
0.0
  0
LINE
  5
56C
330
500
100
AcDbEntity
  8
0
100
AcDbLine
 10
-0.3750000000000146
 20
-0.0701999999999825
 30
0.0
 11
-0.3904539284136823
 21
0.0701999999999923
 31
0.0
  0
LINE
  5
56D
330
500
100
AcDbEntity
  8
0
100
AcDbLine
 10
-0.3556817133241066
 20
-0.0949999999999913
 30
0.0
 11
-0.3711356417377742
 21
0.0950000000000029
 31
0.0
  0
LINE
  5
56E
330
500
100
AcDbEntity
  8
0
100
AcDbLine
 10
-0.3606817133241065
 20
-0.0949999999999913
 30
0.0
 11
-0.3761356417377741
 21
0.0950000000000029
 31
0.0
  0
LINE
  5
56F
330
500
100
AcDbEntity
  8
0
100
AcDbLine
 10
-0.000000000000004
 20
0.1924999999999995
 30
0.0
 11
0.000000000000004
 21
-0.1924999999999995
 31
0.0
  0
LINE
  5
570
330
500
100
AcDbEntity
  8
0
100
AcDbLine
 10
-0.1523483799908002
 20
-0.094999999999994
 30
0.0
 11
-0.1666666666667084
 21
-0.0701999999999852
 31
0.0
  0
LINE
  5
571
330
500
100
AcDbEntity
  8
0
100
AcDbLine
 10
-0.3190150466574413
 20
-0.0949999999999922
 30
0.0
 11
-0.3333333333333495
 21
-0.0701999999999834
 31
0.0
  0
LINE
  5
572
330
500
100
AcDbEntity
  8
0
100
AcDbLine
 10
-0.4166666666666728
 20
-0.0701999999999932
 30
0.0
 11
-0.4246967599815377
 21
-0.0701999999999941
 31
0.0
  0
LINE
  5
573
330
500
100
AcDbEntity
  8
0
100
AcDbLine
 10
-0.4583333333333362
 20
-0.0701999999999941
 30
0.0
 11
-0.4663634266482038
 21
-0.0701999999999941
 31
0.0
  0
LINE
  5
574
330
500
100
AcDbEntity
  8
0
100
AcDbLine
 10
-0.4806817133241031
 20
-0.0949999999999896
 30
0.0
 11
-0.4856817133241003
 21
-0.0949999999999887
 31
0.0
  0
LINE
  5
575
330
500
100
AcDbEntity
  8
0
100
AcDbLine
 10
-0.4806817133241022
 20
-0.0949999999999878
 30
0.0
 11
-0.4663634266481949
 21
-0.070199999999979
 31
0.0
  0
LINE
  5
576
330
500
100
AcDbEntity
  8
0
100
AcDbLine
 10
-0.4856817133241021
 20
-0.0949999999999878
 30
0.0
 11
-0.5000000000000103
 21
-0.070199999999979
 31
0.0
  0
LINE
  5
577
330
500
100
AcDbEntity
  8
0
100
AcDbLine
 10
-0.4390150466574379
 20
-0.0949999999999904
 30
0.0
 11
-0.4440150466574351
 21
-0.0949999999999896
 31
0.0
  0
LINE
  5
578
330
500
100
AcDbEntity
  8
0
100
AcDbLine
 10
-0.439015046657437
 20
-0.0949999999999878
 30
0.0
 11
-0.4246967599815297
 21
-0.070199999999979
 31
0.0
  0
LINE
  5
579
330
500
100
AcDbEntity
  8
0
100
AcDbLine
 10
-0.4440150466574369
 20
-0.0949999999999878
 30
0.0
 11
-0.4583333333333451
 21
-0.070199999999979
 31
0.0
  0
LINE
  5
57A
330
500
100
AcDbEntity
  8
0
100
AcDbLine
 10
-0.3606817133241065
 20
-0.0949999999999913
 30
0.0
 11
-0.3750000000000146
 21
-0.0701999999999825
 31
0.0
  0
LINE
  5
57B
330
500
100
AcDbEntity
  8
0
100
AcDbLine
 10
-0.3973483799907718
 20
-0.0949999999999904
 30
0.0
 11
-0.3830300933148645
 21
-0.0701999999999816
 31
0.0
  0
LINE
  5
57C
330
500
100
AcDbEntity
  8
0
100
AcDbLine
 10
-0.3973483799907709
 20
-0.0949999999999904
 30
0.0
 11
-0.4023483799907699
 21
-0.0949999999999904
 31
0.0
  0
LINE
  5
57D
330
500
100
AcDbEntity
  8
0
100
AcDbLine
 10
-0.3750000000000067
 20
-0.0701999999999941
 30
0.0
 11
-0.3830300933148716
 21
-0.0701999999999941
 31
0.0
  0
LINE
  5
57E
330
500
100
AcDbEntity
  8
0
100
AcDbLine
 10
-0.4023483799907717
 20
-0.0949999999999904
 30
0.0
 11
-0.4166666666666799
 21
-0.0701999999999816
 31
0.0
  0
LINE
  5
57F
330
500
100
AcDbEntity
  8
0
100
AcDbLine
 10
-0.3333333333333432
 20
-0.0701999999999958
 30
0.0
 11
-0.3413634266482064
 21
-0.0701999999999958
 31
0.0
  0
LINE
  5
580
330
500
100
AcDbEntity
  8
0
100
AcDbLine
 10
-0.3556817133241066
 20
-0.0949999999999913
 30
0.0
 11
-0.3606817133241056
 21
-0.0949999999999913
 31
0.0
  0
LINE
  5
581
330
500
100
AcDbEntity
  8
0
100
AcDbLine
 10
-0.3556817133241066
 20
-0.0949999999999913
 30
0.0
 11
-0.3413634266481993
 21
-0.0701999999999825
 31
0.0
  0
LINE
  5
582
330
500
100
AcDbEntity
  8
0
100
AcDbLine
 10
-0.2356817133241175
 20
-0.094999999999994
 30
0.0
 11
-0.2500000000000257
 21
-0.0701999999999852
 31
0.0
  0
LINE
  5
583
330
500
100
AcDbEntity
  8
0
100
AcDbLine
 10
-0.2773483799907761
 20
-0.094999999999994
 30
0.0
 11
-0.2916666666666843
 21
-0.0701999999999852
 31
0.0
  0
LINE
  5
584
330
500
100
AcDbEntity
  8
0
100
AcDbLine
 10
-0.2916666666666798
 20
-0.0701999999999967
 30
0.0
 11
-0.2996967599815403
 21
-0.0701999999999958
 31
0.0
  0
LINE
  5
585
330
500
100
AcDbEntity
  8
0
100
AcDbLine
 10
-0.3140150466574405
 20
-0.0949999999999922
 30
0.0
 11
-0.3190150466574413
 21
-0.0949999999999922
 31
0.0
  0
LINE
  5
586
330
500
100
AcDbEntity
  8
0
100
AcDbLine
 10
-0.3140150466574414
 20
-0.0949999999999922
 30
0.0
 11
-0.2996967599815341
 21
-0.0701999999999834
 31
0.0
  0
LINE
  5
587
330
500
100
AcDbEntity
  8
0
100
AcDbLine
 10
-0.2723483799907762
 20
-0.094999999999994
 30
0.0
 11
-0.277348379990777
 21
-0.0949999999999931
 31
0.0
  0
LINE
  5
588
330
500
100
AcDbEntity
  8
0
100
AcDbLine
 10
-0.2500000000000129
 20
-0.0701999999999976
 30
0.0
 11
-0.258030093314876
 21
-0.0701999999999976
 31
0.0
  0
LINE
  5
589
330
500
100
AcDbEntity
  8
0
100
AcDbLine
 10
-0.2723483799907762
 20
-0.094999999999994
 30
0.0
 11
-0.2580300933148689
 21
-0.0701999999999852
 31
0.0
  0
LINE
  5
58A
330
500
100
AcDbEntity
  8
0
100
AcDbLine
 10
-0.1940150466574588
 20
-0.094999999999994
 30
0.0
 11
-0.208333333333367
 21
-0.0701999999999852
 31
0.0
  0
LINE
  5
58B
330
500
100
AcDbEntity
  8
0
100
AcDbLine
 10
-0.2306817133241176
 20
-0.094999999999994
 30
0.0
 11
-0.2163634266482103
 21
-0.0701999999999852
 31
0.0
  0
LINE
  5
58C
330
500
100
AcDbEntity
  8
0
100
AcDbLine
 10
-0.2083333333333543
 20
-0.0701999999999976
 30
0.0
 11
-0.2163634266482174
 21
-0.0701999999999976
 31
0.0
  0
LINE
  5
58D
330
500
100
AcDbEntity
  8
0
100
AcDbLine
 10
-0.2306817133241176
 20
-0.094999999999994
 30
0.0
 11
-0.2356817133241184
 21
-0.0949999999999931
 31
0.0
  0
LINE
  5
58E
330
500
100
AcDbEntity
  8
0
100
AcDbLine
 10
-0.1890150466574589
 20
-0.094999999999994
 30
0.0
 11
-0.1746967599815516
 21
-0.0701999999999852
 31
0.0
  0
LINE
  5
58F
330
500
100
AcDbEntity
  8
0
100
AcDbLine
 10
-0.1666666666666956
 20
-0.0701999999999976
 30
0.0
 11
-0.1746967599815588
 21
-0.0701999999999976
 31
0.0
  0
LINE
  5
590
330
500
100
AcDbEntity
  8
0
100
AcDbLine
 10
-0.1890150466574589
 20
-0.094999999999994
 30
0.0
 11
-0.1940150466574597
 21
-0.0949999999999931
 31
0.0
  0
LINE
  5
591
330
500
100
AcDbEntity
  8
0
100
AcDbLine
 10
0.0000000000000004
 20
-0.1924999999999977
 30
0.0
 11
-0.1160000000000001
 21
-0.0949999999999967
 31
0.0
  0
LINE
  5
592
330
500
100
AcDbEntity
  8
0
100
AcDbLine
 10
-0.1160000000000001
 20
-0.0857884572681909
 30
0.0
 11
-0.1250000000000497
 21
-0.0701999999999852
 31
0.0
  0
LINE
  5
593
330
500
100
AcDbEntity
  8
0
100
AcDbLine
 10
-0.1473483799908003
 20
-0.094999999999994
 30
0.0
 11
-0.133030093314893
 21
-0.0701999999999852
 31
0.0
  0
LINE
  5
594
330
500
100
AcDbEntity
  8
0
100
AcDbLine
 10
-0.125000000000037
 20
-0.0701999999999976
 30
0.0
 11
-0.1330300933149001
 21
-0.0701999999999976
 31
0.0
  0
LINE
  5
595
330
500
100
AcDbEntity
  8
0
100
AcDbLine
 10
-0.1473483799908003
 20
-0.094999999999994
 30
0.0
 11
-0.1523483799908011
 21
-0.0949999999999931
 31
0.0
  0
LINE
  5
596
330
500
100
AcDbEntity
  8
0
100
AcDbLine
 10
-0.162802308404468
 20
0.0949999999999993
 30
0.0
 11
-0.1484840217285607
 21
0.0701999999999905
 31
0.0
  0
LINE
  5
597
330
500
100
AcDbEntity
  8
0
100
AcDbLine
 10
-0.3294689750711117
 20
0.0950000000000047
 30
0.0
 11
-0.3344689750711054
 21
0.0950000000000055
 31
0.0
  0
LINE
  5
598
330
500
100
AcDbEntity
  8
0
100
AcDbLine
 10
-0.4128023084044412
 20
0.0950000000000073
 30
0.0
 11
-0.4178023084044367
 21
0.0950000000000073
 31
0.0
  0
LINE
  5
599
330
500
100
AcDbEntity
  8
0
100
AcDbLine
 10
-0.4594689750711046
 20
0.0950000000000055
 30
0.0
 11
-0.4737872617470127
 21
0.0701999999999967
 31
0.0
  0
LINE
  5
59A
330
500
100
AcDbEntity
  8
0
100
AcDbLine
 10
-0.4737872617470092
 20
0.0702000000000029
 30
0.0
 11
-0.4818173550618661
 21
0.0702000000000029
 31
0.0
  0
LINE
  5
59B
330
500
100
AcDbEntity
  8
0
100
AcDbLine
 10
-0.4961356417377698
 20
0.0950000000000055
 30
0.0
 11
-0.4818173550618626
 21
0.0701999999999967
 31
0.0
  0
LINE
  5
59C
330
500
100
AcDbEntity
  8
0
100
AcDbLine
 10
-0.4961356417377716
 20
0.0950000000000091
 30
0.0
 11
-0.5011356417377662
 21
0.0950000000000082
 31
0.0
  0
LINE
  5
59D
330
500
100
AcDbEntity
  8
0
100
AcDbLine
 10
-0.4321205950803422
 20
0.0702000000000029
 30
0.0
 11
-0.4401506883952009
 21
0.0702000000000029
 31
0.0
  0
LINE
  5
59E
330
500
100
AcDbEntity
  8
0
100
AcDbLine
 10
-0.4178023084044394
 20
0.0950000000000029
 30
0.0
 11
-0.4321205950803475
 21
0.0701999999999941
 31
0.0
  0
LINE
  5
59F
330
500
100
AcDbEntity
  8
0
100
AcDbLine
 10
-0.4544689750711047
 20
0.0950000000000055
 30
0.0
 11
-0.4401506883951974
 21
0.0701999999999967
 31
0.0
  0
LINE
  5
5A0
330
500
100
AcDbEntity
  8
0
100
AcDbLine
 10
-0.4544689750711055
 20
0.0950000000000091
 30
0.0
 11
-0.4594689750711019
 21
0.0950000000000082
 31
0.0
  0
LINE
  5
5A1
330
500
100
AcDbEntity
  8
0
100
AcDbLine
 10
-0.3711356417377769
 20
0.0950000000000064
 30
0.0
 11
-0.3761356417377706
 21
0.0950000000000073
 31
0.0
  0
LINE
  5
5A2
330
500
100
AcDbEntity
  8
0
100
AcDbLine
 10
-0.3904539284136752
 20
0.0702000000000029
 30
0.0
 11
-0.3984840217285384
 21
0.0702000000000029
 31
0.0
  0
LINE
  5
5A3
330
500
100
AcDbEntity
  8
0
100
AcDbLine
 10
-0.3761356417377741
 20
0.095000000000002
 30
0.0
 11
-0.3904539284136823
 21
0.0701999999999932
 31
0.0
  0
LINE
  5
5A4
330
500
100
AcDbEntity
  8
0
100
AcDbLine
 10
-0.4128023084044395
 20
0.0950000000000029
 30
0.0
 11
-0.3984840217285321
 21
0.0701999999999941
 31
0.0
  0
LINE
  5
5A5
330
500
100
AcDbEntity
  8
0
100
AcDbLine
 10
-0.3487872617470118
 20
0.0702000000000029
 30
0.0
 11
-0.3568173550618714
 21
0.0702000000000029
 31
0.0
  0
LINE
  5
5A6
330
500
100
AcDbEntity
  8
0
100
AcDbLine
 10
-0.3344689750711089
 20
0.0950000000000011
 30
0.0
 11
-0.3487872617470171
 21
0.0701999999999923
 31
0.0
  0
LINE
  5
5A7
330
500
100
AcDbEntity
  8
0
100
AcDbLine
 10
-0.3711356417377742
 20
0.095000000000002
 30
0.0
 11
-0.356817355061867
 21
0.0701999999999932
 31
0.0
  0
LINE
  5
5A8
330
500
100
AcDbEntity
  8
0
100
AcDbLine
 10
-0.2461356417377853
 20
0.0949999999999993
 30
0.0
 11
-0.231817355061878
 21
0.0701999999999905
 31
0.0
  0
LINE
  5
5A9
330
500
100
AcDbEntity
  8
0
100
AcDbLine
 10
-0.2878023084044439
 20
0.0949999999999993
 30
0.0
 11
-0.2734840217285366
 21
0.0701999999999905
 31
0.0
  0
LINE
  5
5AA
330
500
100
AcDbEntity
  8
0
100
AcDbLine
 10
-0.3071205950803439
 20
0.0702000000000029
 30
0.0
 11
-0.3151506883952089
 21
0.0702000000000029
 31
0.0
  0
LINE
  5
5AB
330
500
100
AcDbEntity
  8
0
100
AcDbLine
 10
-0.2878023084044457
 20
0.0950000000000038
 30
0.0
 11
-0.2928023084044411
 21
0.0950000000000029
 31
0.0
  0
LINE
  5
5AC
330
500
100
AcDbEntity
  8
0
100
AcDbLine
 10
-0.2928023084044438
 20
0.0949999999999993
 30
0.0
 11
-0.3071205950803519
 21
0.0701999999999905
 31
0.0
  0
LINE
  5
5AD
330
500
100
AcDbEntity
  8
0
100
AcDbLine
 10
-0.3294689750711091
 20
0.0950000000000011
 30
0.0
 11
-0.3151506883952018
 21
0.0701999999999923
 31
0.0
  0
LINE
  5
5AE
330
500
100
AcDbEntity
  8
0
100
AcDbLine
 10
-0.2511356417377851
 20
0.0949999999999993
 30
0.0
 11
-0.2654539284136933
 21
0.0701999999999905
 31
0.0
  0
LINE
  5
5AF
330
500
100
AcDbEntity
  8
0
100
AcDbLine
 10
-0.246135641737787
 20
0.0950000000000038
 30
0.0
 11
-0.2511356417377825
 21
0.0950000000000029
 31
0.0
  0
LINE
  5
5B0
330
500
100
AcDbEntity
  8
0
100
AcDbLine
 10
-0.2654539284136956
 20
0.0702000000000029
 30
0.0
 11
-0.2734840217285428
 21
0.0702000000000029
 31
0.0
  0
LINE
  5
5B1
330
500
100
AcDbEntity
  8
0
100
AcDbLine
 10
-0.2044689750711266
 20
0.0949999999999993
 30
0.0
 11
-0.1901506883952193
 21
0.0701999999999905
 31
0.0
  0
LINE
  5
5B2
330
500
100
AcDbEntity
  8
0
100
AcDbLine
 10
-0.2094689750711265
 20
0.0949999999999993
 30
0.0
 11
-0.2237872617470347
 21
0.0701999999999905
 31
0.0
  0
LINE
  5
5B3
330
500
100
AcDbEntity
  8
0
100
AcDbLine
 10
-0.2044689750711284
 20
0.0950000000000038
 30
0.0
 11
-0.2094689750711238
 21
0.0950000000000029
 31
0.0
  0
LINE
  5
5B4
330
500
100
AcDbEntity
  8
0
100
AcDbLine
 10
-0.223787261747037
 20
0.0702000000000029
 30
0.0
 11
-0.2318173550618842
 21
0.0702000000000029
 31
0.0
  0
LINE
  5
5B5
330
500
100
AcDbEntity
  8
0
100
AcDbLine
 10
-0.1678023084044679
 20
0.0949999999999993
 30
0.0
 11
-0.182120595080376
 21
0.0701999999999905
 31
0.0
  0
LINE
  5
5B6
330
500
100
AcDbEntity
  8
0
100
AcDbLine
 10
-0.1628023084044697
 20
0.0950000000000038
 30
0.0
 11
-0.1678023084044652
 21
0.0950000000000029
 31
0.0
  0
LINE
  5
5B7
330
500
100
AcDbEntity
  8
0
100
AcDbLine
 10
-0.1821205950803784
 20
0.0702000000000029
 30
0.0
 11
-0.1901506883952255
 21
0.0702000000000029
 31
0.0
  0
LINE
  5
5B8
330
500
100
AcDbEntity
  8
0
100
AcDbLine
 10
-0.1160000000000001
 20
0.0950000000000029
 30
0.0
 11
0.0000000000000004
 21
0.1925000000000021
 31
0.0
  0
LINE
  5
5B9
330
500
100
AcDbEntity
  8
0
100
AcDbLine
 10
-0.1160000000000002
 20
0.0318592953154408
 30
0.0
 11
-0.1211356417378093
 21
0.0950000000000002
 31
0.0
  0
LINE
  5
5BA
330
500
100
AcDbEntity
  8
0
100
AcDbLine
 10
-0.1211356417378093
 20
0.0949999999999993
 30
0.0
 11
-0.1160000000000001
 21
0.0861048075806419
 31
0.0
  0
LINE
  5
5BB
330
500
100
AcDbEntity
  8
0
100
AcDbLine
 10
-0.1261356417378092
 20
0.0949999999999993
 30
0.0
 11
-0.1404539284137174
 21
0.0701999999999905
 31
0.0
  0
LINE
  5
5BC
330
500
100
AcDbEntity
  8
0
100
AcDbLine
 10
-0.1211356417378111
 20
0.0950000000000038
 30
0.0
 11
-0.1261356417378066
 21
0.0950000000000029
 31
0.0
  0
LINE
  5
5BD
330
500
100
AcDbEntity
  8
0
100
AcDbLine
 10
-0.1404539284137197
 20
0.0702000000000029
 30
0.0
 11
-0.1484840217285669
 21
0.0702000000000029
 31
0.0
  0
ENDBLK
  5
5BF
330
500
100
AcDbEntity
  8
0
100
AcDbBlockEnd
  0
BLOCK
  5
623
330
618
100
AcDbEntity
  8
0
100
AcDbBlockBegin
  2
*D4
 70
     1
 10
0.0
 20
0.0
 30
0.0
  3
*D4
  1

  0
LINE
  5
643
330
618
100
AcDbEntity
  8
R-ANNO-DIMS
  6
Continuous
 62
     0
440
 16777216
370
    -2
100
AcDbLine
 10
6.020824593125977
 20
0.9012344290412119
 30
0.0
 11
6.020824593125977
 21
1.238734428794145
 31
0.0
  0
LINE
  5
644
330
618
100
AcDbEntity
  8
R-ANNO-DIMS
  6
Continuous
 62
     0
440
 16777216
370
    -2
100
AcDbLine
 10
5.763325593125981
 20
0.9287349290412144
 30
0.0
 11
5.763325593125981
 21
1.238734428794145
 31
0.0
  0
LINE
  5
645
330
618
100
AcDbEntity
  8
R-ANNO-DIMS
  6
Continuous
 62
     0
440
 16777216
370
    -2
100
AcDbLine
 10
6.145824593125977
 20
1.113734428794145
 30
0.0
 11
6.270824593125977
 21
1.113734428794145
 31
0.0
  0
LINE
  5
646
330
618
100
AcDbEntity
  8
R-ANNO-DIMS
  6
Continuous
 62
     0
440
 16777216
370
    -2
100
AcDbLine
 10
5.638325593125981
 20
1.113734428794145
 30
0.0
 11
5.513325593125981
 21
1.113734428794145
 31
0.0
  0
SOLID
  5
647
330
618
100
AcDbEntity
  8
R-ANNO-DIMS
 62
     0
440
 16777216
100
AcDbTrace
 10
6.145824593125977
 20
1.134567762127478
 30
0.0
 11
6.145824593125977
 21
1.092901095460812
 31
0.0
 12
6.020824593125977
 22
1.113734428794145
 32
0.0
 13
6.020824593125977
 23
1.113734428794145
 33
0.0
  0
SOLID
  5
648
330
618
100
AcDbEntity
  8
R-ANNO-DIMS
 62
     0
440
 16777216
100
AcDbTrace
 10
5.638325593125981
 20
1.092901095460812
 30
0.0
 11
5.638325593125981
 21
1.134567762127478
 31
0.0
 12
5.763325593125981
 22
1.113734428794145
 32
0.0
 13
5.763325593125981
 23
1.113734428794145
 33
0.0
  0
MTEXT
  5
649
330
618
100
AcDbEntity
  8
R-ANNO-DIMS
  6
Continuous
 62
     0
440
 16777216
100
AcDbMText
 10
5.892075093125979
 20
1.113734428794145
 30
0.0
 40
0.125
 41
0.0
 71
     5
 72
     1
  1
\A1;{\H1.000000x;\S1/4;}
  7
SWTSTEXT
 73
     1
 44
1.0
  0
POINT
  5
64A
330
618
100
AcDbEntity
  8
Defpoints
 62
     0
440
 16777216
100
AcDbPoint
 10
6.020824593125977
 20
0.8387344290412119
 30
0.0
  0
POINT
  5
64B
330
618
100
AcDbEntity
  8
Defpoints
 62
     0
440
 16777216
100
AcDbPoint
 10
5.763325593125981
 20
0.8662349290412144
 30
0.0
  0
POINT
  5
64C
330
618
100
AcDbEntity
  8
Defpoints
 62
     0
440
 16777216
100
AcDbPoint
 10
5.763325593125981
 20
1.113734428794145
 30
0.0
  0
ENDBLK
  5
624
330
618
100
AcDbEntity
  8
0
100
AcDbBlockEnd
  0
BLOCK
  5
ACD
330
676
100
AcDbEntity
  8
0
100
AcDbBlockBegin
  2
PEMKO_ASSA LOGO
 70
     0
 10
0.0
 20
0.0
 30
0.0
  3
PEMKO_ASSA LOGO
  1

  0
INSERT
  5
AA0
330
676
100
AcDbEntity
  8
0
100
AcDbBlockReference
  2
ASSA_ABLOY
 10
9.890881301429709
 20
1.092995971723018
 30
0.0
 41
0.5
 42
0.5
 43
0.5
  0
ENDBLK
  5
ACE
330
676
100
AcDbEntity
  8
0
100
AcDbBlockEnd
  0
BLOCK
  5
9CD
330
9CB
100
AcDbEntity
  8
0
100
AcDbBlockBegin
  2
Pemko_ASSA Logo WEB
 70
     0
 10
0.0
 20
0.0
 30
0.0
  3
Pemko_ASSA Logo WEB
  1

  0
INSERT
  5
9CC
330
9CB
100
AcDbEntity
  8
R-ANNO-TEXT
  6
Continuous
100
AcDbBlockReference
  2
PEMKO_ASSA LOGO
 10
0.0504323823128816
 20
-0.0030963513975459
 30
0.0
 41
0.625
 42
0.625
 43
0.625
  0
ENDBLK
  5
9CE
330
9CB
100
AcDbEntity
  8
0
100
AcDbBlockEnd
  0
BLOCK
  5
AA2
330
AA1
100
AcDbEntity
  8
0
100
AcDbBlockBegin
  2
ASSA_ABLOY
 70
     0
 10
0.0
 20
0.0
 30
0.0
  3
ASSA_ABLOY
  1

  0
HATCH
  5
AA3
330
AA1
100
AcDbEntity
  8
0
100
AcDbHatch
 10
0.0
 20
0.0
 30
0.0
210
0.0
220
0.0
230
1.0
  2
SOLID
 70
     1
 71
     0
 91
       11
 92
        5
 93
       82
 72
     4
 94
        3
 73
     0
 74
     0
 95
        8
 96
        4
 40
15.5
 40
15.5
 40
15.5
 40
15.5
 40
16.0
 40
16.0
 40
16.0
 40
16.0
 10
0.2394341362847223
 20
0.1802435980902777
 10
0.1990627712673607
 20
0.2879977756076388
 10
0.15869140625
 20
0.395751953125
 10
0.15869140625
 20
0.395751953125
 72
     4
 94
        3
 73
     0
 74
     0
 95
        8
 96
        4
 40
16.00001
 40
16.00001
 40
16.00001
 40
16.00001
 40
16.99999
 40
16.99999
 40
16.99999
 40
16.99999
 10
0.1586914062064455
 20
0.395751953125
 10
0.1586885026477205
 20
0.395751953125
 10
0.0135120181856126
 20
0.395751953125
 10
0.0135091146268884
 20
0.395751953125
 72
     4
 94
        3
 73
     0
 74
     0
 95
        8
 96
        4
 40
17.0
 40
17.0
 40
17.0
 40
17.0
 40
17.5
 40
17.5
 40
17.5
 40
17.5
 10
0.0135091145833339
 20
0.395751953125
 10
0.0135091145833339
 20
0.395751953125
 10
-0.0476209852430554
 20
0.234395345052083
 10
-0.1087510850694446
 20
0.0730387369791665
 72
     4
 94
        3
 73
     0
 74
     0
 95
        8
 96
        4
 40
17.5
 40
17.5
 40
17.5
 40
17.5
 40
18.0
 40
18.0
 40
18.0
 40
18.0
 10
-0.1087510850694446
 20
0.0730387369791665
 10
-0.169881184895833
 20
-0.08831787109375
 10
-0.2310112847222219
 20
-0.249674479166667
 10
-0.2310112847222219
 20
-0.249674479166667
 72
     4
 94
        3
 73
     0
 74
     0
 95
        8
 96
        4
 40
18.00001
 40
18.00001
 40
18.00001
 40
18.00001
 40
18.99999
 40
18.99999
 40
18.99999
 40
18.99999
 10
-0.2310112846791554
 20
-0.2496744791665648
 10
-0.231008413671538
 20
-0.2496744723850841
 10
-0.0874594682729049
 20
-0.2493354017468605
 10
-0.0874565972652874
 20
-0.2493353949653798
 72
     4
 94
        3
 73
     0
 74
     0
 95
        8
 96
        4
 40
19.00001
 40
19.00001
 40
19.00001
 40
19.00001
 40
19.99999
 40
19.99999
 40
19.99999
 40
19.99999
 10
-0.0874565972070558
 20
-0.2493353949222157
 10
-0.087455586223931
 20
-0.2493325241858564
 10
-0.0369069354774556
 20
-0.1057971416127543
 10
-0.0369059244943317
 20
-0.1057942708763955
 72
     4
 94
        3
 73
     0
 74
     0
 95
        8
 96
        4
 40
20.00001
 40
20.00001
 40
20.00001
 40
20.00001
 40
20.99999
 40
20.99999
 40
20.99999
 40
20.99999
 10
-0.0369059244067591
 20
-0.1057942708333504
 10
-0.0369010973488839
 20
-0.1057942719183869
 10
0.2044493829391616
 20
-0.1058485232205024
 10
0.2044542099970368
 20
-0.1058485243055389
 72
     4
 94
        3
 73
     0
 74
     0
 95
        8
 96
        4
 40
21.00001
 40
21.00001
 40
21.00001
 40
21.00001
 40
21.99999
 40
21.99999
 40
21.99999
 40
21.99999
 10
0.2044542100840845
 20
-0.1058485243486014
 10
0.2044551860747692
 20
-0.1058513939999233
 10
0.2532542323280094
 20
-0.2493325252709106
 10
0.2532552083186941
 20
-0.2493353949222321
 72
     4
 94
        3
 73
     0
 74
     0
 95
        8
 96
        4
 40
22.00001
 40
22.00001
 40
22.00001
 40
22.00001
 40
22.99999
 40
22.99999
 40
22.99999
 40
22.99999
 10
0.2532552083774737
 20
-0.2493353949652981
 10
0.2532581509975289
 20
-0.2493353963215945
 10
0.4003876823358059
 20
-0.2494032104492394
 10
0.4003906249558602
 20
-0.2494032118055358
 72
     4
 94
        3
 73
     0
 74
     0
 95
        8
 96
        4
 40
23.00001
 40
23.00001
 40
23.00001
 40
23.00001
 40
24.0
 40
24.0
 40
24.0
 40
24.0
 10
0.4003906249932161
 20
-0.2494032117874325
 10
0.40039017279957
 20
-0.2494020035867703
 10
0.3777804904513893
 20
-0.1889919704861112
 10
0.3777804904513893
 20
-0.1889919704861112
 72
     4
 94
        3
 73
     0
 74
     0
 95
        8
 96
        4
 40
24.0
 40
24.0
 40
24.0
 40
24.0
 40
25.0
 40
25.0
 40
25.0
 40
25.0
 10
0.3777804904513893
 20
-0.1889919704861112
 10
0.4297553168402777
 20
-0.2406141493055558
 10
0.509684244791667
 20
-0.2647298177083335
 10
0.5931667751736116
 20
-0.264567057291667
 72
     4
 94
        3
 73
     0
 74
     0
 95
        8
 96
        4
 40
25.0
 40
25.0
 40
25.0
 40
25.0
 40
26.0
 40
26.0
 40
26.0
 40
26.0
 10
0.5931667751736116
 20
-0.264567057291667
 10
0.7222357855902777
 20
-0.264689127604167
 10
0.8067220052083339
 20
-0.2164035373263888
 10
0.8422037760416669
 20
-0.1436903211805558
 72
     4
 94
        3
 73
     0
 74
     0
 95
        8
 96
        4
 40
26.0
 40
26.0
 40
26.0
 40
26.0
 40
27.0
 40
27.0
 40
27.0
 40
27.0
 10
0.8422037760416669
 20
-0.1436903211805558
 10
0.8873019748263892
 20
-0.2265353732638888
 10
0.9869113498263892
 20
-0.2644992404513888
 10
1.091769748263889
 20
-0.2643771701388888
 72
     4
 94
        3
 73
     0
 74
     0
 95
       11
 96
        7
 40
27.0
 40
27.0
 40
27.0
 40
27.0
 40
28.0
 40
28.0
 40
28.0
 40
28.250075
 40
28.250075
 40
28.250075
 40
28.250075
 10
1.091769748263889
 20
-0.2643771701388888
 10
1.193033854166666
 20
-0.2643771701388888
 10
1.266628689236111
 20
-0.2346327039930558
 10
1.310818142361111
 20
-0.1867404513888888
 10
1.310818142361111
 20
-0.1867404513888893
 10
1.309343089161759
 20
-0.1906278400103001
 10
1.307130730620709
 20
-0.1964583398341233
 72
     4
 94
        3
 73
     0
 74
     0
 95
        8
 96
        4
 40
28.250075
 40
28.250075
 40
28.250075
 40
28.250075
 40
28.50006999993706
 40
28.50006999993706
 40
28.50006999993706
 40
28.50006999993706
 10
1.307130730620709
 20
-0.1964583398341233
 10
1.304919079822628
 20
-0.2022869744560949
 10
1.301970595341664
 20
-0.2100574772601513
 10
1.299022317235859
 20
-0.2178274361784407
 72
     4
 94
        3
 73
     0
 74
     0
 95
        8
 96
        4
 40
28.50006999993706
 40
28.50006999993706
 40
28.50006999993706
 40
28.50006999993706
 40
28.6250675
 40
28.6250675
 40
28.6250675
 40
28.6250675
 10
1.299022317235859
 20
-0.2178274361784407
 10
1.297548178181843
 20
-0.2217124156405199
 10
1.296074090721616
 20
-0.225597259131157
 10
1.294692184862643
 20
-0.2292391651413204
 72
     4
 94
        3
 73
     0
 74
     0
 95
        8
 96
        4
 40
28.6250675
 40
28.6250675
 40
28.6250675
 40
28.6250675
 40
28.75006499925298
 40
28.75006499925298
 40
28.75006499925298
 40
28.75006499925298
 10
1.294692184862643
 20
-0.2292391651413204
 10
1.293310279012625
 20
-0.2328810711278848
 10
1.292020554762665
 20
-0.2362800396371232
 10
1.290915142118437
 20
-0.2391932691647245
 72
     4
 94
        3
 73
     0
 74
     0
 95
        8
 96
        4
 40
28.75006499925298
 40
28.75006499925298
 40
28.75006499925298
 40
28.75006499925298
 40
28.81256375
 40
28.81256375
 40
28.81256375
 40
28.81256375
 10
1.290915142118437
 20
-0.2391932691647245
 10
1.290362435786413
 20
-0.2406498839546405
 10
1.289855807357474
 20
-0.2419850639947927
 10
1.28940677308295
 20
-0.2431684590955099
 72
     4
 94
        3
 73
     0
 74
     0
 95
        8
 96
        4
 40
28.81256375
 40
28.81256375
 40
28.81256375
 40
28.81256375
 40
28.87506249859974
 40
28.87506249859974
 40
28.87506249859974
 40
28.87506249859974
 10
1.28940677308295
 20
-0.2431684590955099
 10
1.288957738823851
 20
-0.2443518541555689
 10
1.28856629871521
 20
-0.2453834642866228
 10
1.288243969007166
 20
-0.2462329393021285
 72
     4
 94
        3
 73
     0
 74
     0
 95
       11
 96
        7
 40
28.99713037109375
 40
28.99713037109375
 40
28.99713037109375
 40
28.99713037109375
 40
29.0
 40
29.0
 40
29.0
 40
29.250055
 40
29.250055
 40
29.250055
 40
29.250055
 10
1.287232026890839
 20
-0.2488998344827706
 10
1.287231639543527
 20
-0.2489008553066512
 10
1.2872314453125
 20
-0.2489013671875
 10
1.2872314453125
 20
-0.2489013671875
 10
1.2872314453125
 20
-0.2489013671875
 10
1.296212649970631
 20
-0.2489056076051854
 10
1.309683469025316
 20
-0.2489119677652676
 72
     4
 94
        3
 73
     0
 74
     0
 95
        8
 96
        4
 40
29.250055
 40
29.250055
 40
29.250055
 40
29.250055
 40
29.50004999996852
 40
29.50004999996852
 40
29.50004999996852
 40
29.50004999996852
 10
1.309683469025316
 20
-0.2489119677652676
 10
1.323151055792836
 20
-0.2489183263992465
 10
1.341106102673355
 20
-0.2489268037584917
 10
1.359060251864926
 20
-0.2489352806938987
 72
     4
 94
        3
 73
     0
 74
     0
 95
        8
 96
        4
 40
29.50004999996852
 40
29.50004999996852
 40
29.50004999996852
 40
29.50004999996852
 40
29.6250475
 40
29.6250475
 40
29.6250475
 40
29.6250475
 10
1.359060251864926
 20
-0.2489352806938987
 10
1.368037326464103
 20
-0.2489395191616039
 10
1.377014176641042
 20
-0.2489437575233495
 10
1.385429757669864
 20
-0.2489477308854973
 72
     4
 94
        3
 73
     0
 74
     0
 95
        8
 96
        4
 40
29.6250475
 40
29.6250475
 40
29.6250475
 40
29.6250475
 40
29.75004499962645
 40
29.75004499962645
 40
29.75004499962645
 40
29.75004499962645
 10
1.385429757669864
 20
-0.2489477308854973
 10
1.393845338671417
 20
-0.2489517042476317
 10
1.40169965052849
 20
-0.2489554126101701
 10
1.408431648520659
 20
-0.2489585910794769
 72
     4
 94
        3
 73
     0
 74
     0
 95
        8
 96
        4
 40
29.75004499962645
 40
29.75004499962645
 40
29.75004499962645
 40
29.75004499962645
 40
29.81254375
 40
29.81254375
 40
29.81254375
 40
29.81254375
 10
1.408431648520659
 20
-0.2489585910794769
 10
1.41179764754692
 20
-0.2489601803141443
 10
1.414883068101925
 20
-0.2489616370755021
 10
1.417617779593733
 20
-0.248962928251844
 72
     4
 94
        3
 73
     0
 74
     0
 95
        8
 96
        4
 40
29.81254375
 40
29.81254375
 40
29.81254375
 40
29.81254375
 40
29.87504249929978
 40
29.87504249929978
 40
29.87504249929978
 40
29.87504249929978
 10
1.417617779593733
 20
-0.248962928251844
 10
1.420352491038556
 20
-0.2489642194281636
 10
1.422736493432234
 20
-0.2489653450194731
 10
1.42469965618644
 20
-0.2489662719140693
 72
     4
 94
        3
 73
     0
 74
     0
 95
        8
 96
        4
 40
29.87504249929978
 40
29.87504249929978
 40
29.87504249929978
 40
29.87504249929978
 40
29.906291875
 40
29.906291875
 40
29.906291875
 40
29.906291875
 10
1.42469965618644
 20
-0.2489662719140693
 10
1.425681237596536
 20
-0.2489667353613827
 10
1.426557609089691
 20
-0.2489671491345149
 10
1.427320004341481
 20
-0.2489675090945012
 72
     4
 94
        3
 73
     0
 74
     0
 95
       11
 96
        7
 40
29.99808687795555
 40
29.99808687795555
 40
29.99808687795555
 40
29.99808687795555
 40
30.0
 40
30.0
 40
30.0
 40
30.250035
 40
30.250035
 40
30.250035
 40
30.250035
 10
1.430865937892823
 20
-0.2489691832840908
 10
1.430866987307661
 20
-0.2489691837795656
 10
1.430867513020833
 20
-0.2489691840277777
 10
1.430867513020833
 20
-0.2489691840277777
 10
1.430867513020833
 20
-0.2489691840277777
 10
1.434032054505367
 20
-0.2399851762494727
 10
1.438778645214263
 20
-0.2265097934625597
 72
     4
 94
        3
 73
     0
 74
     0
 95
        8
 96
        4
 40
30.250035
 40
30.250035
 40
30.250035
 40
30.250035
 40
30.99995896606446
 40
30.99995896606446
 40
30.99995896606446
 40
30.99995896606446
 10
1.438778645214263
 20
-0.2265097934625597
 10
1.453014980646105
 20
-0.1860934017422067
 10
1.481482887178413
 20
-0.1052741440493339
 10
1.481486002348482
 20
-0.1052653002050463
 72
     4
 94
        3
 73
     0
 74
     0
 95
       11
 96
        7
 40
30.99996062252729
 40
30.99996062252729
 40
30.99996062252729
 40
30.99996062252729
 40
31.0
 40
31.0
 40
31.0
 40
31.250015
 40
31.250015
 40
31.250015
 40
31.250015
 10
1.481486002368708
 20
-0.1052653001476247
 10
1.481486002525679
 20
-0.1052652997019923
 10
1.481486002604166
 20
-0.105265299479167
 10
1.481486002604166
 20
-0.105265299479167
 10
1.481486002604166
 20
-0.105265299479167
 10
1.496572821268769
 20
-0.105256821356849
 10
1.519202596661114
 20
-0.1052441044277161
 72
     4
 94
        3
 73
     0
 74
     0
 95
        8
 96
        4
 40
31.250015
 40
31.250015
 40
31.250015
 40
31.250015
 40
31.50000999998426
 40
31.50000999998426
 40
31.50000999998426
 40
31.50000999998426
 10
1.519202596661114
 20
-0.1052441044277161
 10
1.541830561778619
 20
-0.1052313885158771
 10
1.572000276870517
 20
-0.1052144344753643
 10
1.60216969027479
 20
-0.1051974806043869
 72
     4
 94
        3
 73
     0
 74
     0
 95
        8
 96
        4
 40
31.50000999998426
 40
31.50000999998426
 40
31.50000999998426
 40
31.50000999998426
 40
31.6250075
 40
31.6250075
 40
31.6250075
 40
31.6250075
 10
1.60216969027479
 20
-0.1051974806043869
 10
1.617254396979777
 20
-0.1051890036688965
 10
1.632339028262856
 20
-0.1051805267757899
 10
1.646480827665744
 20
-0.1051725797123435
 72
     4
 94
        3
 73
     0
 74
     0
 95
        8
 96
        4
 40
31.6250075
 40
31.6250075
 40
31.6250075
 40
31.6250075
 40
31.75000499981318
 40
31.75000499981318
 40
31.75000499981318
 40
31.75000499981318
 10
1.646480827665744
 20
-0.1051725797123435
 10
1.660622627045713
 20
-0.1051646326489104
 10
1.673821594548544
 20
-0.1051572154151352
 10
1.685134973720536
 20
-0.1051508577982925
 72
     4
 94
        3
 73
     0
 74
     0
 95
        8
 96
        4
 40
31.75000499981318
 40
31.75000499981318
 40
31.75000499981318
 40
31.75000499981318
 40
31.81250375
 40
31.81250375
 40
31.81250375
 40
31.81250375
 10
1.685134973720536
 20
-0.1051508577982925
 10
1.690791663331895
 20
-0.1051476789898569
 10
1.695976955856316
 20
-0.1051447650856563
 10
1.700573006735502
 20
-0.1051421823091014
 72
     4
 94
        3
 73
     0
 74
     0
 95
        8
 96
        4
 40
31.81250375
 40
31.81250375
 40
31.81250375
 40
31.81250375
 40
31.8750024996498
 40
31.8750024996498
 40
31.8750024996498
 40
31.8750024996498
 10
1.700573006735502
 20
-0.1051421823091014
 10
1.705169057575196
 20
-0.1051395995325688
 10
1.709175866779782
 20
-0.1051373478836766
 10
1.712475589793998
 20
-0.1051354935858324
 72
     4
 94
        3
 73
     0
 74
     0
 95
        8
 96
        4
 40
31.8750024996498
 40
31.8750024996498
 40
31.8750024996498
 40
31.8750024996498
 40
31.906251875
 40
31.906251875
 40
31.906251875
 40
31.906251875
 10
1.712475589793998
 20
-0.1051354935858324
 10
1.714125451328841
 20
-0.1051345664368939
 10
1.715598541310148
 20
-0.1051337386257214
 10
1.716880129167769
 20
-0.1051330184302408
 72
     4
 94
        3
 73
     0
 74
     0
 95
        8
 96
        4
 40
31.906251875
 40
31.906251875
 40
31.906251875
 40
31.906251875
 40
31.93750124898663
 40
31.93750124898663
 40
31.93750124898663
 40
31.93750124898663
 10
1.716880129167769
 20
-0.1051330184302408
 10
1.718161716969468
 20
-0.1051322982347917
 10
1.719251802664192
 20
-0.1051316856550257
 10
1.720135655683721
 20
-0.1051311889688673
 72
     4
 94
        3
 73
     0
 74
     0
 95
        8
 96
        4
 40
31.93750124898663
 40
31.93750124898663
 40
31.93750124898663
 40
31.93750124898663
 40
31.9531259375
 40
31.9531259375
 40
31.9531259375
 40
31.9531259375
 10
1.720135655683721
 20
-0.1051311889688673
 10
1.720577582236479
 20
-0.1051309406257639
 10
1.720967950610406
 20
-0.1051307212560681
 10
1.721304919483937
 20
-0.1051305318945208
 72
     4
 94
        3
 73
     0
 74
     0
 95
        8
 96
        4
 40
31.9531259375
 40
31.9531259375
 40
31.9531259375
 40
31.9531259375
 40
31.96875062334518
 40
31.96875062334518
 40
31.96875062334518
 40
31.96875062334518
 10
1.721304919483937
 20
-0.1051305318945208
 10
1.721641888299926
 20
-0.1051303425330055
 10
1.721925457633757
 20
-0.1051301831796283
 10
1.722153786164808
 20
-0.1051300548691296
 72
     4
 94
        3
 73
     0
 74
     0
 95
        8
 96
        4
 40
31.96875062334518
 40
31.96875062334518
 40
31.96875062334518
 40
31.96875062334518
 40
31.97656296875
 40
31.97656296875
 40
31.97656296875
 40
31.97656296875
 10
1.722153786164808
 20
-0.1051300548691296
 10
1.722267950466607
 20
-0.1051299907138601
 10
1.722368304558933
 20
-0.1051299343193155
 10
1.722454618276493
 20
-0.1051298858148382
 72
     4
 94
        3
 73
     0
 74
     0
 95
        8
 96
        4
 40
31.97656296875
 40
31.97656296875
 40
31.97656296875
 40
31.97656296875
 40
31.98437530953667
 40
31.98437530953667
 40
31.98437530953667
 40
31.98437530953667
 10
1.722454618276493
 20
-0.1051298858148382
 10
1.72254093194303
 20
-0.1051298373103897
 10
1.722613205251398
 20
-0.1051297966959992
 10
1.722671208036709
 20
-0.1051297641010089
 72
     4
 94
        3
 73
     0
 74
     0
 95
        8
 96
        4
 40
31.98437530953667
 40
31.98437530953667
 40
31.98437530953667
 40
31.98437530953667
 40
31.988281484375
 40
31.988281484375
 40
31.988281484375
 40
31.988281484375
 10
1.722671208036709
 20
-0.1051297641010089
 10
1.722700209462367
 20
-0.1051297478034949
 10
1.72272564324914
 20
-0.1051297335108359
 10
1.72274748062632
 20
-0.1051297212391993
 72
     4
 94
        3
 73
     0
 74
     0
 95
        8
 96
        4
 40
31.988281484375
 40
31.988281484375
 40
31.988281484375
 40
31.988281484375
 40
31.99218765065793
 40
31.99218765065793
 40
31.99218765065793
 40
31.99218765065793
 10
1.72274748062632
 20
-0.1051297212391993
 10
1.722769317955672
 20
-0.1051297089675898
 10
1.722787558891185
 20
-0.1051296987169938
 10
1.722802174662337
 20
-0.1051296905035794
 72
     4
 94
        3
 73
     0
 74
     0
 95
        8
 96
        4
 40
31.99218765065793
 40
31.99218765065793
 40
31.99218765065793
 40
31.99218765065793
 40
31.9941407421875
 40
31.9941407421875
 40
31.9941407421875
 40
31.9941407421875
 10
1.722802174662337
 20
-0.1051296905035794
 10
1.7228094825793
 20
-0.1051296863968547
 10
1.722815884197388
 20
-0.1051296827994292
 10
1.72282137592024
 20
-0.1051296797133245
 72
     4
 94
        3
 73
     0
 74
     0
 95
        8
 96
        4
 40
31.9941407421875
 40
31.9941407421875
 40
31.9941407421875
 40
31.9941407421875
 40
31.99609381726987
 40
31.99609381726987
 40
31.99609381726987
 40
31.99609381726987
 10
1.72282137592024
 20
-0.1051296797133245
 10
1.722826867596845
 20
-0.105129676627246
 10
1.722831449393538
 20
-0.1051296740524794
 10
1.72283511771405
 20
-0.1051296719910462
 72
     4
 94
        3
 73
     0
 74
     0
 95
        8
 96
        4
 40
31.99609381726987
 40
31.99609381726987
 40
31.99609381726987
 40
31.99609381726987
 40
31.99707037109375
 40
31.99707037109375
 40
31.99707037109375
 40
31.99707037109375
 10
1.72283511771405
 20
-0.1051296719910462
 10
1.72283695190489
 20
-0.1051296709603124
 10
1.722838557719067
 20
-0.1051296700579161
 10
1.722839934707027
 20
-0.1051296692841097
 72
     4
 94
        3
 73
     0
 74
     0
 95
        8
 96
        4
 40
31.99707037109375
 40
31.99707037109375
 40
31.99707037109375
 40
31.99707037109375
 40
31.9980468926782
 40
31.9980468926782
 40
31.9980468926782
 40
31.9980468926782
 10
1.722839934707027
 20
-0.1051296692841097
 10
1.722841311649528
 20
-0.1051296685103296
 10
1.722842459780919
 20
-0.1051296678651306
 10
1.72284337865169
 20
-0.1051296673487663
 72
     4
 94
        3
 73
     0
 74
     0
 95
        8
 96
        4
 40
31.9980468926782
 40
31.9980468926782
 40
31.9980468926782
 40
31.9980468926782
 40
31.99853518554688
 40
31.99853518554688
 40
31.99853518554688
 40
31.99853518554688
 10
1.72284337865169
 20
-0.1051296673487663
 10
1.722843838117259
 20
-0.105129667090567
 10
1.722844240260141
 20
-0.1051296668645802
 10
1.722844585024137
 20
-0.1051296666708379
 72
     4
 94
        3
 73
     0
 74
     0
 95
       11
 96
        7
 40
31.99853518554688
 40
31.99853518554688
 40
31.99853518554688
 40
31.99853518554688
 40
32.0
 40
32.0
 40
32.0
 40
32.49999
 40
32.49999
 40
32.49999
 40
32.49999
 10
1.722844585024137
 20
-0.1051296666708379
 10
1.722845619270829
 20
-0.1051296660896375
 10
1.722846137152776
 20
-0.1051296657986112
 10
1.722846137152777
 20
-0.1051296657986112
 10
1.722846137152777
 20
-0.1051296657986112
 10
1.735039117300884
 20
-0.1410440277921436
 10
1.747232341308594
 20
-0.1769591080729165
 72
     4
 94
        3
 73
     0
 74
     0
 95
        8
 96
        4
 40
32.49999
 40
32.49999
 40
32.49999
 40
32.49999
 40
32.99997613614973
 40
32.99997613614973
 40
32.99997613614973
 40
32.99997613614973
 10
1.747232341308594
 20
-0.1769591080729165
 10
1.759425471088834
 20
-0.2128739108071529
 10
1.77161884472491
 20
-0.2487894318175279
 10
1.77162000859723
 20
-0.2487928599976183
 72
     4
 94
        3
 73
     0
 74
     0
 95
        8
 96
        4
 40
33.06247875
 40
33.06247875
 40
33.06247875
 40
33.06247875
 40
33.093728125
 40
33.093728125
 40
33.093728125
 40
33.093728125
 10
1.773273744895547
 20
-0.2487928602430598
 10
1.773813183580124
 20
-0.2487928602430593
 10
1.774478534844467
 20
-0.2487928602430593
 10
1.775260805549564
 20
-0.2487928602430593
 72
     4
 94
        3
 73
     0
 74
     0
 95
        8
 96
        4
 40
33.093728125
 40
33.093728125
 40
33.093728125
 40
33.093728125
 40
33.1249775
 40
33.1249775
 40
33.1249775
 40
33.1249775
 10
1.775260805549564
 20
-0.2487928602430593
 10
1.77604307625466
 20
-0.2487928602430593
 10
1.776942266400511
 20
-0.2487928602430593
 10
1.777949382848102
 20
-0.2487928602430593
 72
     4
 94
        3
 73
     0
 74
     0
 95
        8
 96
        4
 40
33.1249775
 40
33.1249775
 40
33.1249775
 40
33.1249775
 40
33.18747625
 40
33.18747625
 40
33.18747625
 40
33.18747625
 10
1.777949382848102
 20
-0.2487928602430593
 10
1.779963615743282
 20
-0.2487928602430593
 10
1.782409553845424
 20
-0.2487928602430593
 10
1.785215252042426
 20
-0.2487928602430593
 72
     4
 94
        3
 73
     0
 74
     0
 95
        8
 96
        4
 40
33.18747625
 40
33.18747625
 40
33.18747625
 40
33.18747625
 40
33.24997500000001
 40
33.24997500000001
 40
33.24997500000001
 40
33.24997500000001
 10
1.785215252042426
 20
-0.2487928602430593
 10
1.788020950239426
 20
-0.2487928602430593
 10
1.791186408531284
 20
-0.2487928602430593
 10
1.794639681805898
 20
-0.2487928602430593
 72
     4
 94
        3
 73
     0
 74
     0
 95
        8
 96
        4
 40
33.24997500000001
 40
33.24997500000001
 40
33.24997500000001
 40
33.24997500000001
 40
33.37497250000001
 40
33.37497250000001
 40
33.37497250000001
 40
33.37497250000001
 10
1.794639681805898
 20
-0.2487928602430593
 10
1.801546228355128
 20
-0.2487928602430589
 10
1.80960403483538
 20
-0.2487928602430589
 10
1.818237540349832
 20
-0.2487928602430589
 72
     4
 94
        3
 73
     0
 74
     0
 95
        8
 96
        4
 40
33.37497250000001
 40
33.37497250000001
 40
33.37497250000001
 40
33.37497250000001
 40
33.49997000000001
 40
33.49997000000001
 40
33.49997000000001
 40
33.49997000000001
 10
1.818237540349832
 20
-0.2487928602430589
 10
1.826871045864283
 20
-0.2487928602430589
 10
1.836080250412935
 20
-0.2487928602430589
 10
1.845289593098965
 20
-0.2487928602430589
 72
     4
 94
        3
 73
     0
 74
     0
 95
        8
 96
        4
 40
33.49997000000001
 40
33.49997000000001
 40
33.49997000000001
 40
33.49997000000001
 40
33.749965
 40
33.749965
 40
33.749965
 40
33.749965
 10
1.845289593098965
 20
-0.2487928602430589
 10
1.863708278471026
 20
-0.2487928602430585
 10
1.882127516392598
 20
-0.248792860243058
 10
1.895942819689103
 20
-0.2487928602430576
 72
     4
 94
        3
 73
     0
 74
     0
 95
        8
 96
        4
 40
33.749965
 40
33.749965
 40
33.749965
 40
33.749965
 40
33.99995758377254
 40
33.99995758377254
 40
33.99995758377254
 40
33.99995758377254
 10
1.895942819689103
 20
-0.2487928602430576
 10
1.909757989459277
 20
-0.2487928602430571
 10
1.918969313598961
 20
-0.2487928602430562
 10
1.918972438440812
 20
-0.2487928602430558
 72
     4
 94
        3
 73
     0
 74
     0
 95
       11
 96
        7
 40
33.99996
 40
33.99996
 40
33.99996
 40
33.99996
 40
34.0
 40
34.0
 40
34.0
 40
34.749945
 40
34.749945
 40
34.749945
 40
34.749945
 10
1.918972438528837
 20
-0.2487928602430558
 10
1.918972439000346
 20
-0.2487928602430558
 10
1.91897243923611
 20
-0.2487928602430558
 10
1.918972439236111
 20
-0.2487928602430558
 10
1.918972439236111
 20
-0.2487928602430558
 10
1.783105222623993
 20
0.1140002987517055
 10
1.715156668924106
 20
0.295436785496578
 72
     4
 94
        3
 73
     0
 74
     0
 95
        8
 96
        4
 40
34.749945
 40
34.749945
 40
34.749945
 40
34.749945
 40
34.9999397134596
 40
34.9999397134596
 40
34.9999397134596
 40
34.9999397134596
 10
1.715156668924106
 20
0.295436785496578
 10
1.692505968923176
 20
0.355918770862039
 10
1.6774025747648
 20
0.3962479114368658
 10
1.677395293432518
 20
0.3962673540780432
 72
     4
 94
        3
 73
     0
 74
     0
 95
        8
 96
        4
 40
35.06243875
 40
35.06243875
 40
35.06243875
 40
35.06243875
 40
35.093688125
 40
35.093688125
 40
35.093688125
 40
35.093688125
 10
1.675763693549519
 20
0.3962673611111112
 10
1.675231127604801
 20
0.3962673611111112
 10
1.674574167574395
 20
0.3962673611111112
 10
1.673801697328689
 20
0.3962673611111112
 72
     4
 94
        3
 73
     0
 74
     0
 95
        8
 96
        4
 40
35.093688125
 40
35.093688125
 40
35.093688125
 40
35.093688125
 40
35.1249375
 40
35.1249375
 40
35.1249375
 40
35.1249375
 10
1.673801697328689
 20
0.3962673611111112
 10
1.673029227082983
 20
0.3962673611111112
 10
1.672141246621976
 20
0.3962673611111112
 10
1.671146639816055
 20
0.3962673611111112
 72
     4
 94
        3
 73
     0
 74
     0
 95
        8
 96
        4
 40
35.1249375
 40
35.1249375
 40
35.1249375
 40
35.1249375
 40
35.18743625000001
 40
35.18743625000001
 40
35.18743625000001
 40
35.18743625000001
 10
1.671146639816055
 20
0.3962673611111112
 10
1.669157426204215
 20
0.3962673611111116
 10
1.666741707212721
 20
0.3962673611111116
 10
1.66397055380467
 20
0.3962673611111116
 72
     4
 94
        3
 73
     0
 74
     0
 95
        8
 96
        4
 40
35.18743625000001
 40
35.18743625000001
 40
35.18743625000001
 40
35.18743625000001
 40
35.24993500000001
 40
35.24993500000001
 40
35.24993500000001
 40
35.24993500000001
 10
1.66397055380467
 20
0.3962673611111116
 10
1.661199400396619
 20
0.3962673611111116
 10
1.658072812572012
 20
0.3962673611111116
 10
1.654661861293946
 20
0.3962673611111116
 72
     4
 94
        3
 73
     0
 74
     0
 95
        8
 96
        4
 40
35.24993500000001
 40
35.24993500000001
 40
35.24993500000001
 40
35.24993500000001
 40
35.37493250000001
 40
35.37493250000001
 40
35.37493250000001
 40
35.37493250000001
 10
1.654661861293946
 20
0.3962673611111116
 10
1.647839958737813
 20
0.3962673611111116
 10
1.639880602367845
 20
0.3962673611111116
 10
1.631352359888817
 20
0.3962673611111116
 72
     4
 94
        3
 73
     0
 74
     0
 95
        8
 96
        4
 40
35.37493250000001
 40
35.37493250000001
 40
35.37493250000001
 40
35.37493250000001
 40
35.49993000000001
 40
35.49993000000001
 40
35.49993000000001
 40
35.49993000000001
 10
1.631352359888817
 20
0.3962673611111116
 10
1.622824117409788
 20
0.3962673611111116
 10
1.613726988821699
 20
0.3962673611111116
 10
1.604629541829329
 20
0.3962673611111116
 72
     4
 94
        3
 73
     0
 74
     0
 95
        8
 96
        4
 40
35.49993000000001
 40
35.49993000000001
 40
35.49993000000001
 40
35.49993000000001
 40
35.749925
 40
35.749925
 40
35.749925
 40
35.749925
 10
1.604629541829329
 20
0.3962673611111116
 10
1.586434647844585
 20
0.3962673611111116
 10
1.56823848024271
 20
0.3962673611111116
 10
1.554589580661921
 20
0.3962673611111112
 72
     4
 94
        3
 73
     0
 74
     0
 95
       11
 96
        7
 40
35.749925
 40
35.749925
 40
35.749925
 40
35.749925
 40
36.0
 40
36.0
 40
36.0
 40
37.0
 40
37.0
 40
37.0
 40
37.0
 10
1.554589580661921
 20
0.3962673611111112
 10
1.540936313345913
 20
0.3962673611111112
 10
1.531833224826389
 20
0.3962673611111112
 10
1.531833224826389
 20
0.3962673611111112
 10
1.531833224826389
 20
0.3962673611111112
 10
1.35986328125
 20
-0.0575086805555558
 10
1.35986328125
 20
-0.0575086805555558
 72
     4
 94
        3
 73
     0
 74
     0
 95
        8
 96
        4
 40
1.0
 40
1.0
 40
1.0
 40
1.0
 40
2.0
 40
2.0
 40
2.0
 40
2.0
 10
1.35986328125
 20
-0.0575086805555558
 10
1.359632703993056
 20
0.0888807508680554
 10
1.215196397569444
 20
0.1187608506944442
 10
1.168240017361111
 20
0.1303032769097223
 72
     4
 94
        3
 73
     0
 74
     0
 95
        8
 96
        4
 40
2.0
 40
2.0
 40
2.0
 40
2.0
 40
3.0
 40
3.0
 40
3.0
 40
3.0
 10
1.168240017361111
 20
0.1303032769097223
 10
1.006415473090277
 20
0.1720377604166665
 10
0.9757893880208339
 20
0.1779649522569442
 10
0.9757080078125
 20
0.2279324001736112
 72
     4
 94
        3
 73
     0
 74
     0
 95
        8
 96
        4
 40
3.0
 40
3.0
 40
3.0
 40
3.0
 40
4.0
 40
4.0
 40
4.0
 40
4.0
 10
0.9757080078125
 20
0.2279324001736112
 10
0.9757893880208339
 20
0.2821587456597223
 10
1.028130425347222
 20
0.3011474609375
 10
1.073269314236111
 20
0.301025390625
 72
     4
 94
        3
 73
     0
 74
     0
 95
        8
 96
        4
 40
4.0
 40
4.0
 40
4.0
 40
4.0
 40
5.0
 40
5.0
 40
5.0
 40
5.0
 10
1.073269314236111
 20
0.301025390625
 10
1.1412353515625
 20
0.3010932074652777
 10
1.196180555555556
 20
0.2812906901041665
 10
1.2008056640625
 20
0.2036539713541665
 72
     4
 94
        3
 73
     0
 74
     0
 95
        8
 96
        4
 40
5.000009999999999
 40
5.000009999999999
 40
5.000009999999999
 40
5.000009999999999
 40
6.0
 40
6.0
 40
6.0
 40
6.0
 10
1.200805664103686
 20
0.2036539713541665
 10
1.200808409817
 20
0.2036539713541665
 10
1.338094075520833
 20
0.2036539713541665
 10
1.338094075520833
 20
0.2036539713541665
 72
     4
 94
        3
 73
     0
 74
     0
 95
        8
 96
        4
 40
6.0
 40
6.0
 40
6.0
 40
6.0
 40
7.0
 40
7.0
 40
7.0
 40
7.0
 10
1.338094075520833
 20
0.2036539713541665
 10
1.337917751736111
 20
0.3526882595486112
 10
1.214192708333333
 20
0.4113362630208331
 10
1.079698350694444
 20
0.4112820095486108
 72
     4
 94
        3
 73
     0
 74
     0
 95
        8
 96
        4
 40
7.0
 40
7.0
 40
7.0
 40
7.0
 40
8.0
 40
8.0
 40
8.0
 40
8.0
 10
1.079698350694444
 20
0.4112820095486108
 10
0.9644911024305562
 20
0.4113362630208331
 10
0.8418511284722223
 20
0.3495551215277777
 10
0.8387858072916669
 20
0.221150716145833
 72
     4
 94
        3
 73
     0
 74
     0
 95
        8
 96
        4
 40
8.0
 40
8.0
 40
8.0
 40
8.0
 40
9.0
 40
9.0
 40
9.0
 40
9.0
 10
0.8387858072916669
 20
0.221150716145833
 10
0.8290744357638892
 20
0.3570556640625
 10
0.7102593315972224
 20
0.4111463758680554
 10
0.5809868706597224
 20
0.4110378689236108
 72
     4
 94
        3
 73
     0
 74
     0
 95
        8
 96
        4
 40
9.0
 40
9.0
 40
9.0
 40
9.0
 40
10.0
 40
10.0
 40
10.0
 40
10.0
 10
0.5809868706597224
 20
0.4110378689236108
 10
0.4646945529513893
 20
0.4110378689236108
 10
0.3399929470486116
 20
0.34765625
 10
0.3400607638888893
 20
0.2158745659722223
 72
     4
 94
        3
 73
     0
 74
     0
 95
        8
 96
        4
 40
10.0
 40
10.0
 40
10.0
 40
10.0
 40
11.0
 40
11.0
 40
11.0
 40
11.0
 10
0.3400607638888893
 20
0.2158745659722223
 10
0.3401014539930562
 20
0.0946587456597223
 10
0.4367947048611116
 20
0.0578342013888889
 10
0.5325249565972224
 20
0.0324978298611112
 72
     4
 94
        3
 73
     0
 74
     0
 95
        8
 96
        4
 40
11.0
 40
11.0
 40
11.0
 40
11.0
 40
12.0
 40
12.0
 40
12.0
 40
12.0
 10
0.5325249565972224
 20
0.0324978298611112
 10
0.6274278428819447
 20
0.0072157118055554
 10
0.7240532769097224
 20
-0.004435221354167
 10
0.7239854600694447
 20
-0.0740017361111112
 72
     4
 94
        3
 73
     0
 74
     0
 95
        8
 96
        4
 40
12.0
 40
12.0
 40
12.0
 40
12.0
 40
13.0
 40
13.0
 40
13.0
 40
13.0
 10
0.7239854600694447
 20
-0.0740017361111112
 10
0.7240532769097224
 20
-0.1399197048611112
 10
0.648234049479167
 20
-0.1543240017361112
 10
0.5986328125
 20
-0.1544867621527777
 72
     4
 94
        3
 73
     0
 74
     0
 95
        8
 96
        4
 40
13.0
 40
13.0
 40
13.0
 40
13.0
 40
14.0
 40
14.0
 40
14.0
 40
14.0
 10
0.5986328125
 20
-0.1544867621527777
 10
0.5225694444444447
 20
-0.1546223958333335
 10
0.455891927083334
 20
-0.1210394965277777
 10
0.4558241102430563
 20
-0.0352647569444447
 72
     4
 94
        3
 73
     0
 74
     0
 95
        8
 96
        4
 40
14.00001
 40
14.00001
 40
14.00001
 40
14.00001
 40
14.99999
 40
14.99999
 40
14.99999
 40
14.99999
 10
0.4558241102023626
 20
-0.0352647569444447
 10
0.4558213973388714
 20
-0.0352647569444447
 10
0.3201795792236286
 20
-0.0352647569444447
 10
0.3201768663601392
 20
-0.0352647569444447
 72
     4
 94
        3
 73
     0
 74
     0
 95
        8
 96
        4
 40
15.0
 40
15.0
 40
15.0
 40
15.0
 40
15.5
 40
15.5
 40
15.5
 40
15.5
 10
0.3201768663194446
 20
-0.0352647569444447
 10
0.3201768663194446
 20
-0.0352647569444447
 10
0.2798055013020839
 20
0.0724894205729165
 10
0.2394341362847223
 20
0.1802435980902777
 97
        0
 92
       22
 72
     0
 73
     1
 93
        4
 10
0.0840115017361116
 20
0.2366129557291665
 10
0.0859239366319447
 20
0.2366129557291665
 10
0.1672634548611116
 20
-0.0000542534722223
 10
0.0
 20
0.0
 97
        0
 92
       20
 93
       10
 72
     4
 94
        3
 73
     0
 74
     0
 95
        8
 96
        4
 40
4.0
 40
4.0
 40
4.0
 40
4.0
 40
5.0
 40
5.0
 40
5.0
 40
5.0
 10
0.4772813585069447
 20
0.2276746961805554
 10
0.4775390625
 20
0.2819146050347223
 10
0.5297580295138893
 20
0.3009711371527777
 10
0.574869791666667
 20
0.3008490668402777
 72
     4
 94
        3
 73
     0
 74
     0
 95
        8
 96
        4
 40
5.0
 40
5.0
 40
5.0
 40
5.0
 40
6.0
 40
6.0
 40
6.0
 40
6.0
 10
0.574869791666667
 20
0.3008490668402777
 10
0.6427273220486116
 20
0.3008490668402777
 10
0.6976589626736116
 20
0.2811821831597223
 10
0.7022705078125
 20
0.2034640842013888
 72
     4
 94
        3
 73
     0
 74
     0
 95
        8
 96
        4
 40
6.000009999999999
 40
6.000009999999999
 40
6.000009999999999
 40
6.000009999999999
 40
7.0
 40
7.0
 40
7.0
 40
7.0
 10
0.7022705078535605
 20
0.2034640842013888
 10
0.7022732451577536
 20
0.2034640842013888
 10
0.8391384548611116
 20
0.2034640842013888
 10
0.8391384548611116
 20
0.2034640842013888
 72
     4
 94
        3
 73
     0
 74
     0
 95
        8
 96
        4
 40
7.0
 40
7.0
 40
7.0
 40
7.0
 40
8.0
 40
8.0
 40
8.0
 40
8.0
 10
0.8391384548611116
 20
0.2034640842013888
 10
0.8457845052083339
 20
0.0925428602430554
 10
0.9385715060763892
 20
0.0570339626736112
 10
1.030843098958333
 20
0.0328776041666665
 72
     4
 94
        3
 73
     0
 74
     0
 95
        8
 96
        4
 40
8.0
 40
8.0
 40
8.0
 40
8.0
 40
9.0
 40
9.0
 40
9.0
 40
9.0
 10
1.030843098958333
 20
0.0328776041666665
 10
1.125827365451389
 20
0.0075547960069442
 10
1.222574869791666
 20
-0.004069010416667
 10
1.222642686631944
 20
-0.0737033420138889
 72
     4
 94
        3
 73
     0
 74
     0
 95
        8
 96
        4
 40
9.0
 40
9.0
 40
9.0
 40
9.0
 40
10.0
 40
10.0
 40
10.0
 40
10.0
 10
1.222642686631944
 20
-0.0737033420138889
 10
1.222574869791666
 20
-0.1396213107638888
 10
1.146755642361111
 20
-0.1541341145833335
 10
1.096856011284722
 20
-0.1541341145833335
 72
     4
 94
        3
 73
     0
 74
     0
 95
        8
 96
        4
 40
0.0
 40
0.0
 40
0.0
 40
0.0
 40
1.0
 40
1.0
 40
1.0
 40
1.0
 10
1.096856011284722
 20
-0.1541341145833335
 10
1.021104600694444
 20
-0.1543240017361112
 10
0.9542507595486116
 20
-0.120849609375
 10
0.9539794921875
 20
-0.0352647569444447
 72
     4
 94
        3
 73
     0
 74
     0
 95
        8
 96
        4
 40
1.00001
 40
1.00001
 40
1.00001
 40
1.00001
 40
2.0
 40
2.0
 40
2.0
 40
2.0
 10
0.9539794921592887
 20
-0.0352647569444078
 10
0.9539776115002887
 20
-0.0352647545030509
 10
0.8599446614583339
 20
-0.0351426866319447
 10
0.8599446614583339
 20
-0.0351426866319447
 72
     4
 94
        3
 73
     0
 74
     0
 95
        8
 96
        4
 40
2.0
 40
2.0
 40
2.0
 40
2.0
 40
3.0
 40
3.0
 40
3.0
 40
3.0
 10
0.8599446614583339
 20
-0.0351426866319447
 10
0.8459201388888892
 20
0.0917154947916665
 10
0.714314778645834
 20
0.1189914279513888
 10
0.669677734375
 20
0.1301812065972223
 72
     4
 94
        3
 73
     0
 74
     0
 95
        8
 96
        4
 40
3.0
 40
3.0
 40
3.0
 40
3.0
 40
4.0
 40
4.0
 40
4.0
 40
4.0
 10
0.669677734375
 20
0.1301812065972223
 10
0.508260091145834
 20
0.1716715494791665
 10
0.4774034288194447
 20
0.1780734592013888
 10
0.4772813585069447
 20
0.2276746961805554
 97
        0
 92
       22
 72
     0
 73
     1
 93
        4
 10
1.518324110243056
 20
0.00048828125
 10
1.6024169921875
 20
0.2370876736111112
 10
1.604166666666666
 20
0.2370876736111112
 10
1.685791015625
 20
0.000569661458333
 97
        0
 92
        5
 93
       18
 72
     4
 94
        3
 73
     0
 74
     0
 95
        8
 96
        4
 40
4.5
 40
4.5
 40
4.5
 40
4.5
 40
5.0
 40
5.0
 40
5.0
 40
5.0
 10
2.52914089626736
 20
0.0979410807291661
 10
2.473236083984375
 20
0.2472941080729161
 10
2.417331271701389
 20
0.3966471354166661
 10
2.417331271701389
 20
0.3966471354166665
 72
     4
 94
        3
 73
     0
 74
     0
 95
        8
 96
        4
 40
5.000009999999999
 40
5.000009999999999
 40
5.000009999999999
 40
5.000009999999999
 40
5.99999
 40
5.99999
 40
5.99999
 40
5.99999
 10
2.417331271657704
 20
0.3966471354166257
 10
2.417328359418684
 20
0.3966471327040337
 10
2.271717864539648
 20
0.3965115044487439
 10
2.271714952300628
 20
0.3965115017361516
 72
     4
 94
        3
 73
     0
 74
     0
 95
        8
 96
        4
 40
6.0
 40
6.0
 40
6.0
 40
6.0
 40
6.5
 40
6.5
 40
6.5
 40
6.5
 10
2.271714952256944
 20
0.3965115017361112
 10
2.271714952256944
 20
0.3965115017361112
 10
2.210557725694444
 20
0.2351854112413196
 10
2.149400499131944
 20
0.0738593207465277
 72
     4
 94
        3
 73
     0
 74
     0
 95
        8
 96
        4
 40
6.5
 40
6.5
 40
6.5
 40
6.5
 40
7.0
 40
7.0
 40
7.0
 40
7.0
 10
2.149400499131944
 20
0.0738593207465277
 10
2.088243272569444
 20
-0.0874667697482643
 10
2.027086046006944
 20
-0.2487928602430558
 10
2.027086046006944
 20
-0.2487928602430558
 72
     4
 94
        3
 73
     0
 74
     0
 95
        8
 96
        4
 40
7.000009999999999
 40
7.000009999999999
 40
7.000009999999999
 40
7.000009999999999
 40
7.99999
 40
7.99999
 40
7.99999
 40
7.99999
 10
2.027086046050107
 20
-0.2487928602430398
 10
2.027088923567947
 20
-0.2487928591580029
 10
2.170963376779274
 20
-0.2487386078558864
 10
2.170966254297113
 20
-0.2487386067708495
 72
     4
 94
        3
 73
     0
 74
     0
 95
        8
 96
        4
 40
8.000009999999999
 40
8.000009999999999
 40
8.000009999999999
 40
8.000009999999999
 40
8.99999
 40
8.99999
 40
8.99999
 40
8.99999
 10
2.170966254355398
 20
-0.2487386067276818
 10
2.17096726235467
 20
-0.2487357300236201
 10
2.221366722020329
 20
-0.1049019652888798
 10
2.221367730019601
 20
-0.1048990885848187
 72
     4
 94
        3
 73
     0
 74
     0
 95
        8
 96
        4
 40
9.000009999999999
 40
9.000009999999999
 40
9.000009999999999
 40
9.000009999999999
 40
9.99999
 40
9.99999
 40
9.99999
 40
9.99999
 10
2.221367730107138
 20
-0.1048990885417038
 10
2.221372557707532
 20
-0.1048990909830363
 10
2.462750163646634
 20
-0.1050211564127972
 10
2.462754991247027
 20
-0.1050211588541301
 72
     4
 94
        3
 73
     0
 74
     0
 95
        8
 96
        4
 40
10.00001
 40
10.00001
 40
10.00001
 40
10.00001
 40
10.99999
 40
10.99999
 40
10.99999
 40
10.99999
 10
2.462754991334072
 20
-0.105021158897225
 10
2.462755966510979
 20
-0.1050240293623244
 10
2.511514324287632
 20
-0.2485458491098984
 10
2.511515299464538
 20
-0.2485487195749982
 72
     4
 94
        3
 73
     0
 74
     0
 95
        8
 96
        4
 40
11.00001
 40
11.00001
 40
11.00001
 40
11.00001
 40
11.99999
 40
11.99999
 40
11.99999
 40
11.99999
 10
2.51151529952336
 20
-0.2485487196180154
 10
2.511518245669781
 20
-0.2485487169054226
 10
2.65882409373994
 20
-0.2484130886501328
 10
2.658827039886362
 20
-0.2484130859375404
 72
     4
 94
        3
 73
     0
 74
     0
 95
        8
 96
        4
 40
13.00001
 40
13.00001
 40
13.00001
 40
13.00001
 40
14.0
 40
14.0
 40
14.0
 40
14.0
 10
2.658827040019027
 20
-0.2484130859374676
 10
2.658832938067297
 20
-0.2484130837673719
 10
2.9537353515625
 20
-0.2483045789930558
 10
2.9537353515625
 20
-0.2483045789930558
 72
     4
 94
        3
 73
     0
 74
     0
 95
        8
 96
        4
 40
14.0
 40
14.0
 40
14.0
 40
14.0
 40
15.0
 40
15.0
 40
15.0
 40
15.0
 10
2.9537353515625
 20
-0.2483045789930558
 10
3.0701904296875
 20
-0.2483045789930558
 10
3.1812744140625
 20
-0.1920844184027777
 10
3.181342230902777
 20
-0.0610894097222223
 72
     4
 94
        3
 73
     0
 74
     0
 95
        8
 96
        4
 40
15.0
 40
15.0
 40
15.0
 40
15.0
 40
16.0
 40
16.0
 40
16.0
 40
16.0
 10
3.181342230902777
 20
-0.0610894097222223
 10
3.1812744140625
 20
0.0193142361111112
 10
3.141343858506944
 20
0.0797797309027777
 10
3.062649197048611
 20
0.1022135416666665
 72
     4
 94
        3
 73
     0
 74
     0
 95
        8
 96
        4
 40
0.0
 40
0.0
 40
0.0
 40
0.0
 40
1.0
 40
1.0
 40
1.0
 40
1.0
 10
3.062649197048611
 20
0.1022135416666665
 10
3.118801540798611
 20
0.1293674045138888
 10
3.150404188368055
 20
0.1737603081597223
 10
3.1505126953125
 20
0.2369791666666665
 72
     4
 94
        3
 73
     0
 74
     0
 95
        8
 96
        4
 40
1.0
 40
1.0
 40
1.0
 40
1.0
 40
2.0
 40
2.0
 40
2.0
 40
2.0
 10
3.1505126953125
 20
0.2369791666666665
 10
3.150404188368055
 20
0.3570556640625
 10
3.067206488715277
 20
0.396931966145833
 10
2.9442138671875
 20
0.3967692057291665
 72
     4
 94
        3
 73
     0
 74
     0
 95
        8
 96
        4
 40
2.00001
 40
2.00001
 40
2.00001
 40
2.00001
 40
2.99999
 40
2.99999
 40
2.99999
 40
2.99999
 10
2.944213867096423
 20
0.3967692057291296
 10
2.944207795501231
 20
0.3967692032877972
 10
2.640631071686267
 20
0.3966471378580363
 10
2.640625000091075
 20
0.3966471354167034
 72
     4
 94
        3
 73
     0
 74
     0
 95
        8
 96
        4
 40
3.0
 40
3.0
 40
3.0
 40
3.0
 40
3.5
 40
3.5
 40
3.5
 40
3.5
 10
2.640625
 20
0.3966471354166665
 10
2.640625
 20
0.3966471354166665
 10
2.640706380208333
 20
0.2472941080729165
 10
2.640787760416666
 20
0.0979410807291665
 72
     4
 94
        3
 73
     0
 74
     0
 95
        8
 96
        4
 40
3.5
 40
3.5
 40
3.5
 40
3.5
 40
3.99999
 40
3.99999
 40
3.99999
 40
3.99999
 10
2.640787760416666
 20
0.0979410807291665
 10
2.640869138997395
 20
-0.0514089595540366
 10
2.640950517578126
 20
-0.2007589998372397
 10
2.640950520833236
 20
-0.2007649737791115
 72
     4
 94
        3
 73
     0
 74
     0
 95
        8
 96
        4
 40
4.000009999999999
 40
4.000009999999999
 40
4.000009999999999
 40
4.000009999999999
 40
4.5
 40
4.5
 40
4.5
 40
4.5
 10
2.640950520766248
 20
-0.2007649737791111
 10
2.640948284640842
 20
-0.2007589998372401
 10
2.585044590454101
 20
-0.0514089595540375
 10
2.52914089626736
 20
0.0979410807291661
 97
        0
 92
       22
 72
     0
 73
     1
 93
        4
 10
2.342447916666666
 20
0.2374674479166665
 10
2.344251844618055
 20
0.2374674479166665
 10
2.425632052951389
 20
0.0007052951388888
 10
2.258327907986111
 20
0.0007052951388888
 97
        0
 92
       20
 93
       22
 72
     4
 94
        3
 73
     0
 74
     0
 95
        8
 96
        4
 40
4.49999
 40
4.49999
 40
4.49999
 40
4.49999
 40
5.0
 40
5.0
 40
5.0
 40
5.0
 10
2.782714844563802
 20
0.2109420146348739
 10
2.782701280924484
 20
0.2487269228635753
 10
2.782687717013889
 20
0.2865125868055553
 10
2.782687717013889
 20
0.2865125868055553
 72
     4
 94
        3
 73
     0
 74
     0
 95
        8
 96
        4
 40
0.00001
 40
0.00001
 40
0.00001
 40
0.00001
 40
1.0
 40
1.0
 40
1.0
 40
1.0
 10
2.782687717053713
 20
0.2865125868055931
 10
2.782690371894277
 20
0.28651258924695
 10
2.915432400173611
 20
0.2866346571180553
 10
2.915432400173611
 20
0.2866346571180553
 72
     4
 94
        3
 73
     0
 74
     0
 95
        8
 96
        4
 40
1.0
 40
1.0
 40
1.0
 40
1.0
 40
2.0
 40
2.0
 40
2.0
 40
2.0
 10
2.915432400173611
 20
0.2866346571180553
 10
2.965928819444444
 20
0.2865125868055553
 10
3.0130615234375
 20
0.2739935980902777
 10
3.013224283854166
 20
0.2125244140625
 72
     4
 94
        3
 73
     0
 74
     0
 95
       11
 96
        7
 40
2.0
 40
2.0
 40
2.0
 40
2.0
 40
3.0
 40
3.0
 40
3.0
 40
3.250015
 40
3.250015
 40
3.250015
 40
3.250015
 10
3.013224283854166
 20
0.2125244140625
 10
3.013115776909722
 20
0.1582302517361112
 10
2.975925021701389
 20
0.1356065538194442
 10
2.926500108506944
 20
0.1356743706597223
 10
2.926500108506944
 20
0.1356743706597223
 10
2.917514146662261
 20
0.1356557187906233
 10
2.904035473474093
 20
0.1356277415465303
 72
     4
 94
        3
 73
     0
 74
     0
 95
        8
 96
        4
 40
3.250015
 40
3.250015
 40
3.250015
 40
3.250015
 40
3.500009999968511
 40
3.500009999968511
 40
3.500009999968511
 40
3.500009999968511
 10
2.904035473474093
 20
0.1356277415465303
 10
2.890557878516783
 20
0.1355997665404858
 10
2.872588290979056
 20
0.1355624676513609
 10
2.854618883131246
 20
0.1355251691352128
 72
     4
 94
        3
 73
     0
 74
     0
 95
        8
 96
        4
 40
3.500009999968511
 40
3.500009999968511
 40
3.500009999968511
 40
3.500009999968511
 40
3.625007499999999
 40
3.625007499999999
 40
3.625007499999999
 40
3.625007499999999
 10
2.854618883131246
 20
0.1355251691352128
 10
2.845634179203948
 20
0.1355065198771324
 10
2.836649520199129
 20
0.1354878707122959
 10
2.828226427651218
 20
0.1354703871727119
 72
     4
 94
        3
 73
     0
 74
     0
 95
        8
 96
        4
 40
3.625007499999999
 40
3.625007499999999
 40
3.625007499999999
 40
3.625007499999999
 40
3.750004999626355
 40
3.750004999626355
 40
3.750004999626355
 40
3.750004999626355
 10
2.828226427651218
 20
0.1354703871727119
 10
2.819803335130607
 20
0.1354529036331842
 10
2.811941809063265
 20
0.1354365857189013
 10
2.805203370978158
 20
0.1354225989618607
 72
     4
 94
        3
 73
     0
 74
     0
 95
        8
 96
        4
 40
3.750004999626355
 40
3.750004999626355
 40
3.750004999626355
 40
3.750004999626355
 40
3.812503749999999
 40
3.812503749999999
 40
3.812503749999999
 40
3.812503749999999
 10
2.805203370978158
 20
0.1354225989618607
 10
2.801834151905391
 20
0.1354156055832778
 10
2.798745704833219
 20
0.1354091949940157
 10
2.796008219954652
 20
0.1354035128855782
 72
     4
 94
        3
 73
     0
 74
     0
 95
        8
 96
        4
 40
3.812503749999999
 40
3.812503749999999
 40
3.812503749999999
 40
3.812503749999999
 40
3.875002499299581
 40
3.875002499299581
 40
3.875002499299581
 40
3.875002499299581
 10
2.796008219954652
 20
0.1354035128855782
 10
2.793270735123129
 20
0.1353978307772383
 10
2.790884212473147
 20
0.1353928771496982
 10
2.788918842194098
 20
0.1353887976944534
 72
     4
 94
        3
 73
     0
 74
     0
 95
        8
 96
        4
 40
3.875002499299581
 40
3.875002499299581
 40
3.875002499299581
 40
3.875002499299581
 40
3.906251874999999
 40
3.906251874999999
 40
3.906251874999999
 40
3.906251874999999
 10
2.788918842194098
 20
0.1353887976944534
 10
2.787936157021534
 20
0.1353867579667627
 10
2.787058759948783
 20
0.1353849367821605
 10
2.786295424750404
 20
0.1353833523520853
 72
     4
 94
        3
 73
     0
 74
     0
 95
        8
 96
        4
 40
3.906251874999999
 40
3.906251874999999
 40
3.906251874999999
 40
3.906251874999999
 40
3.93750124898662
 40
3.93750124898662
 40
3.93750124898662
 40
3.93750124898662
 10
2.786295424750404
 20
0.1353833523520853
 10
2.785532089593889
 20
0.1353817679220972
 10
2.784882816299234
 20
0.1353804202466109
 10
2.784356378639555
 20
0.1353793275370614
 72
     4
 94
        3
 73
     0
 74
     0
 95
        8
 96
        4
 40
3.93750124898662
 40
3.93750124898662
 40
3.93750124898662
 40
3.93750124898662
 40
3.9531259375
 40
3.9531259375
 40
3.9531259375
 40
3.9531259375
 10
2.784356378639555
 20
0.1353793275370614
 10
2.784093159784107
 20
0.1353787811822338
 10
2.783860649843378
 20
0.1353782985689027
 10
2.783659945539328
 20
0.1353778819734983
 72
     4
 94
        3
 73
     0
 74
     0
 95
        8
 96
        4
 40
3.9531259375
 40
3.9531259375
 40
3.9531259375
 40
3.9531259375
 40
3.968750621690335
 40
3.968750621690335
 40
3.968750621690335
 40
3.968750621690335
 10
2.783659945539328
 20
0.1353778819734983
 10
2.78345924129081
 20
0.1353774653782089
 10
2.78329034266137
 20
0.1353771148008103
 10
2.783154346372057
 20
0.1353768325177302
 72
     4
 94
        3
 73
     0
 74
     0
 95
        8
 96
        4
 40
3.968750621690335
 40
3.968750621690335
 40
3.968750621690335
 40
3.968750621690335
 40
3.97656296875
 40
3.97656296875
 40
3.97656296875
 40
3.97656296875
 10
2.783154346372057
 20
0.1353768325177302
 10
2.78308634818419
 20
0.1353766913761003
 10
2.783026575591809
 20
0.1353765673080716
 10
2.782975165685307
 20
0.1353764605981986
 72
     4
 94
        3
 73
     0
 74
     0
 95
        8
 96
        4
 40
3.97656296875
 40
3.97656296875
 40
3.97656296875
 40
3.97656296875
 40
3.984375306573316
 40
3.984375306573316
 40
3.984375306573316
 40
3.984375306573316
 10
2.782975165685307
 20
0.1353764605981986
 10
2.782923755839586
 20
0.1353763538884518
 10
2.78288070865997
 20
0.1353762645368199
 10
2.782846161236363
 20
0.135376192827855
 72
     4
 94
        3
 73
     0
 74
     0
 95
        8
 96
        4
 40
3.984375306573316
 40
3.984375306573316
 40
3.984375306573316
 40
3.984375306573316
 40
3.988281484375
 40
3.988281484375
 40
3.988281484375
 40
3.988281484375
 10
2.782846161236363
 20
0.135376192827855
 10
2.782828887485248
 20
0.1353761569732912
 10
2.782813738682808
 20
0.1353761255294144
 10
2.782800731965397
 20
0.1353760985317938
 72
     4
 94
        3
 73
     0
 74
     0
 95
        8
 96
        4
 40
3.988281484375
 40
3.988281484375
 40
3.988281484375
 40
3.988281484375
 40
3.992187645065919
 40
3.992187645065919
 40
3.992187645065919
 40
3.992187645065919
 10
2.782800731965397
 20
0.1353760985317938
 10
2.782787725304961
 20
0.1353760715342913
 10
2.782776860710789
 20
0.135376048983006
 10
2.782768155319011
 20
0.1353760309135072
 72
     4
 94
        3
 73
     0
 74
     0
 95
        8
 96
        4
 40
3.992187645065919
 40
3.992187645065919
 40
3.992187645065919
 40
3.992187645065919
 40
3.994140742187499
 40
3.994140742187499
 40
3.994140742187499
 40
3.994140742187499
 10
2.782768155319011
 20
0.1353760309135072
 10
2.782763802585735
 20
0.1353760218786806
 10
2.782759989662331
 20
0.1353760139643194
 10
2.782756718690869
 20
0.1353760071748704
 72
     4
 94
        3
 73
     0
 74
     0
 95
        8
 96
        4
 40
3.994140742187499
 40
3.994140742187499
 40
3.994140742187499
 40
3.994140742187499
 40
3.996093806414469
 40
3.996093806414469
 40
3.996093806414469
 40
3.996093806414469
 10
2.782756718690869
 20
0.1353760071748704
 10
2.782753447774499
 20
0.1353760003855355
 10
2.782750718791817
 20
0.1353759947210751
 10
2.782748533884785
 20
0.1353759901859344
 72
     4
 94
        3
 73
     0
 74
     0
 95
        8
 96
        4
 40
3.996093806414469
 40
3.996093806414469
 40
3.996093806414469
 40
3.996093806414469
 40
3.997070371093749
 40
3.997070371093749
 40
3.997070371093749
 40
3.997070371093749
 10
2.782748533884785
 20
0.1353759901859344
 10
2.782747441394838
 20
0.1353759879182887
 10
2.782746484932875
 20
0.1353759859329919
 10
2.78274566476667
 20
0.1353759842305995
 72
     4
 94
        3
 73
     0
 74
     0
 95
        8
 96
        4
 40
3.997070371093749
 40
3.997070371093749
 40
3.997070371093749
 40
3.997070371093749
 40
3.998046871293237
 40
3.998046871293237
 40
3.998046871293237
 40
3.998046871293237
 10
2.78274566476667
 20
0.1353759842305995
 10
2.782744844654617
 20
0.1353759825283189
 10
2.782744160820325
 20
0.1353759811089059
 10
2.78274361353151
 20
0.1353759799729164
 72
     4
 94
        3
 73
     0
 74
     0
 95
       11
 96
        7
 40
3.998046871293237
 40
3.998046871293237
 40
3.998046871293237
 40
3.998046871293237
 40
4.0
 40
4.0
 40
4.0
 40
4.49999
 40
4.49999
 40
4.49999
 40
4.49999
 10
2.78274361353151
 20
0.1353759799729164
 10
2.78274251888197
 20
0.1353759777007877
 10
2.782741970486112
 20
0.1353759765625
 10
2.782741970486111
 20
0.1353759765625
 10
2.782741970486111
 20
0.1353759765625
 10
2.782728407660584
 20
0.173158617772275
 10
2.782714844563802
 20
0.2109420146348739
 97
        0
 92
       20
 93
        5
 72
     4
 94
        3
 73
     0
 74
     0
 95
        8
 96
        4
 40
2.00001
 40
2.00001
 40
2.00001
 40
2.00001
 40
3.0
 40
3.0
 40
3.0
 40
3.0
 10
2.782782660636631
 20
0.0389811197917034
 10
2.782785750852603
 20
0.0389811222330603
 10
2.937296549479166
 20
0.0391031901041665
 10
2.937296549479166
 20
0.0391031901041665
 72
     4
 94
        3
 73
     0
 74
     0
 95
        8
 96
        4
 40
3.0
 40
3.0
 40
3.0
 40
3.0
 40
4.0
 40
4.0
 40
4.0
 40
4.0
 10
2.937296549479166
 20
0.0391031901041665
 10
2.997775607638889
 20
0.0391710069444442
 10
3.039510091145833
 20
0.0128309461805554
 10
3.039320203993055
 20
-0.0531141493055558
 72
     4
 94
        3
 73
     0
 74
     0
 95
        8
 96
        4
 40
4.0
 40
4.0
 40
4.0
 40
4.0
 40
5.0
 40
5.0
 40
5.0
 40
5.0
 10
3.039320203993055
 20
-0.0531141493055558
 10
3.039320203993055
 20
-0.1200493706597223
 10
2.990505642361111
 20
-0.1380886501736112
 10
2.934719509548611
 20
-0.1380072699652777
 72
     4
 94
        3
 73
     0
 74
     0
 95
        8
 96
        4
 40
0.00001
 40
0.00001
 40
0.00001
 40
0.00001
 40
0.99999
 40
0.99999
 40
0.99999
 40
0.99999
 10
2.934719509503061
 20
-0.1380072699653265
 10
2.934716472756057
 20
-0.1380072732204374
 10
2.782880640959222
 20
-0.1381700271267854
 10
2.782877604212219
 20
-0.1381700303818958
 72
     4
 94
        3
 73
     0
 74
     0
 95
        8
 96
        4
 40
1.00001
 40
1.00001
 40
1.00001
 40
1.00001
 40
1.99999
 40
1.99999
 40
1.99999
 40
1.99999
 10
2.782877604166638
 20
-0.1381700303287996
 10
2.782877602267823
 20
-0.1381664874120867
 10
2.782782662489121
 20
0.0389775768218077
 10
2.782782660590305
 20
0.0389811197385215
 97
        0
 92
        5
 93
       14
 72
     4
 94
        3
 73
     0
 74
     0
 95
        8
 96
        4
 40
3.5
 40
3.5
 40
3.5
 40
3.5
 40
4.0
 40
4.0
 40
4.0
 40
4.0
 10
3.344760470920139
 20
0.1347588433159723
 10
3.344289143880208
 20
0.2666659884982638
 10
3.343817816840277
 20
0.3985731336805553
 10
3.343817816840277
 20
0.3985731336805553
 72
     4
 94
        3
 73
     0
 74
     0
 95
        8
 96
        4
 40
4.000009999999999
 40
4.000009999999999
 40
4.000009999999999
 40
4.000009999999999
 40
4.99999
 40
4.99999
 40
4.99999
 40
4.99999
 10
3.343817816797736
 20
0.3985731336803688
 10
3.34381498078256
 20
0.3985731212024435
 10
3.202015639877163
 20
0.397949231228111
 10
3.202012803861984
 20
0.3979492187501865
 72
     4
 94
        3
 73
     0
 74
     0
 95
        8
 96
        4
 40
5.0
 40
5.0
 40
5.0
 40
5.0
 40
5.5
 40
5.5
 40
5.5
 40
5.5
 10
3.202012803819444
 20
0.39794921875
 10
3.202012803819444
 20
0.39794921875
 10
3.202501085069444
 20
0.2364434136284723
 10
3.202989366319444
 20
0.0749376085069447
 72
     4
 94
        3
 73
     0
 74
     0
 95
       11
 96
        7
 40
5.5
 40
5.5
 40
5.5
 40
5.5
 40
6.0
 40
6.0
 40
6.0
 40
6.5
 40
6.5
 40
6.5
 40
6.5
 10
3.202989366319444
 20
0.0749376085069447
 10
3.203477647569444
 20
-0.0865681966145831
 10
3.203965928819444
 20
-0.2480740017361112
 10
3.203965928819444
 20
-0.2480740017361112
 10
3.203965928819444
 20
-0.2480740017361112
 10
3.306528727213541
 20
-0.2476535373263893
 10
3.409091525607639
 20
-0.247233072916667
 72
     4
 94
        3
 73
     0
 74
     0
 95
        8
 96
        4
 40
6.5
 40
6.5
 40
6.5
 40
6.5
 40
7.0
 40
7.0
 40
7.0
 40
7.0
 10
3.409091525607639
 20
-0.247233072916667
 10
3.511654324001736
 20
-0.2468126085069446
 10
3.614217122395833
 20
-0.2463921440972223
 10
3.614217122395833
 20
-0.2463921440972223
 72
     4
 94
        3
 73
     0
 74
     0
 95
        8
 96
        4
 40
7.000009999999999
 40
7.000009999999999
 40
7.000009999999999
 40
7.000009999999999
 40
8.0
 40
8.0
 40
8.0
 40
8.0
 10
3.614217122395692
 20
-0.2463921440733658
 10
3.614217112901523
 20
-0.2463905536646362
 10
3.613742404513889
 20
-0.1668701171875
 10
3.613742404513889
 20
-0.1668701171875
 72
     4
 94
        3
 73
     0
 74
     0
 95
        8
 96
        4
 40
8.0
 40
8.0
 40
8.0
 40
8.0
 40
9.0
 40
9.0
 40
9.0
 40
9.0
 10
3.613742404513889
 20
-0.1668701171875
 10
3.66796875
 20
-0.2266574435763888
 10
3.746771918402777
 20
-0.263427734375
 10
3.8460693359375
 20
-0.2633056640625
 72
     4
 94
        3
 73
     0
 74
     0
 95
        8
 96
        4
 40
9.0
 40
9.0
 40
9.0
 40
9.0
 40
10.0
 40
10.0
 40
10.0
 40
10.0
 10
3.8460693359375
 20
-0.2633056640625
 10
4.045694986979166
 20
-0.2633056640625
 10
4.163018120659723
 20
-0.1141357421875
 10
4.162841796875
 20
0.0719129774305554
 72
     4
 94
        3
 73
     0
 74
     0
 95
        8
 96
        4
 40
10.0
 40
10.0
 40
10.0
 40
10.0
 40
10.99329554255516
 40
10.99329554255516
 40
10.99329554255516
 40
10.99329554255516
 10
4.162841796875
 20
0.0719129774305554
 10
4.162976521205315
 20
0.2622110940021658
 10
4.046847494031954
 20
0.4105429208965737
 10
3.849666250918519
 20
0.4122043185763867
 72
     1
 10
3.8496662509185
 20
0.4122043185763884
 11
3.841787185571964
 21
0.4122043185763884
 72
     4
 94
        3
 73
     0
 74
     0
 95
        8
 96
        4
 40
0.0064895139144228
 40
0.0064895139144228
 40
0.0064895139144228
 40
0.0064895139144228
 40
1.0
 40
1.0
 40
1.0
 40
1.0
 10
3.841787185571926
 20
0.4122043185763849
 10
3.644557226106335
 20
0.4105519815972434
 10
3.52856568540032
 20
0.2621297630261123
 10
3.528754340277777
 20
0.0717230902777777
 72
     4
 94
        3
 73
     0
 74
     0
 95
        8
 96
        4
 40
1.0
 40
1.0
 40
1.0
 40
1.0
 40
2.0
 40
2.0
 40
2.0
 40
2.0
 10
3.528754340277777
 20
0.0717230902777777
 10
3.528876410590277
 20
-0.0035942925347223
 10
3.548366970486111
 20
-0.0725233289930558
 10
3.584404839409722
 20
-0.1282280815972223
 72
     4
 94
        3
 73
     0
 74
     0
 95
        8
 96
        4
 40
2.00001
 40
2.00001
 40
2.00001
 40
2.00001
 40
2.99999
 40
2.99999
 40
2.99999
 40
2.99999
 10
3.584404839338112
 20
-0.1282280815974706
 10
3.584400065447043
 20
-0.1282280981442834
 10
3.345707898962678
 20
-0.1290554305015505
 10
3.345703125071609
 20
-0.1290554470483629
 72
     4
 94
        3
 73
     0
 74
     0
 95
        8
 96
        4
 40
3.0
 40
3.0
 40
3.0
 40
3.0
 40
3.5
 40
3.5
 40
3.5
 40
3.5
 10
3.345703125
 20
-0.1290554470486112
 10
3.345703125
 20
-0.1290554470486112
 10
3.345231797960069
 20
0.0028516981336804
 10
3.344760470920139
 20
0.1347588433159723
 97
        0
 92
       20
 93
        4
 72
     4
 94
        3
 73
     0
 74
     0
 95
        8
 96
        4
 40
1.0
 40
1.0
 40
1.0
 40
1.0
 40
2.0
 40
2.0
 40
2.0
 40
2.0
 10
3.6705322265625
 20
0.0717230902777777
 10
3.670477973090277
 20
0.1846110026041665
 10
3.71826171875
 20
0.293050130208333
 10
3.845770941840277
 20
0.2931179470486112
 72
     4
 94
        3
 73
     0
 74
     0
 95
        8
 96
        4
 40
2.0
 40
2.0
 40
2.0
 40
2.0
 40
3.0
 40
3.0
 40
3.0
 40
3.0
 10
3.845770941840277
 20
0.2931179470486112
 10
3.973198784722223
 20
0.2931179470486112
 10
4.021063910590278
 20
0.1848008897569442
 10
4.021294487847223
 20
0.0720350477430554
 72
     4
 94
        3
 73
     0
 74
     0
 95
        8
 96
        4
 40
3.0
 40
3.0
 40
3.0
 40
3.0
 40
4.0
 40
4.0
 40
4.0
 40
4.0
 10
4.021294487847223
 20
0.0720350477430554
 10
4.021335177951389
 20
-0.0356987847222223
 10
3.973320855034723
 20
-0.1439887152777777
 10
3.845974392361111
 20
-0.1441921657986112
 72
     4
 94
        3
 73
     0
 74
     0
 95
        8
 96
        4
 40
0.0
 40
0.0
 40
0.0
 40
0.0
 40
1.0
 40
1.0
 40
1.0
 40
1.0
 10
3.845974392361111
 20
-0.1441921657986112
 10
3.718505859375
 20
-0.1442599826388888
 10
3.670722113715277
 20
-0.0357530381944447
 10
3.6705322265625
 20
0.0717230902777777
 97
        0
 92
        7
 72
     0
 73
     1
 93
        9
 10
4.223117404513889
 20
0.3970675998263884
 10
4.063137478298612
 20
0.3971218532986107
 10
4.300699869791666
 20
0.0034722222222228
 10
4.300971137152778
 20
-0.247884114583333
 10
4.44289822048611
 20
-0.2479519314236112
 10
4.442599826388889
 20
-0.0001763237847223
 10
4.681993272569444
 20
0.3972574869791669
 10
4.52395290798611
 20
0.3973659939236107
 10
4.374159071180555
 20
0.1425103081597219
 97
        0
 75
     1
 76
     1
 47
0.0047599364980606
 98
       11
 10
0.0572416080064118
 20
0.3376433347990639
 10
0.0572416080064118
 20
0.3376433347990639
 10
0.0572416080064118
 20
0.3376433347990639
 10
0.0572416080064118
 20
0.3376433347990639
 10
2.310441407171535
 20
0.2805241118248984
 10
2.310441407171535
 20
0.2805241118248984
 10
2.310441407171535
 20
0.2805241118248984
 10
2.310441407171535
 20
0.2805241118248984
 10
3.272695881510874
 20
0.2662442902794764
 10
3.272695881510874
 20
0.2662442902794764
 10
4.263532132408171
 20
0.2234048677815599
450
        0
451
        0
460
0.0
461
0.0
452
        1
462
0.0
453
        0
470

1001
GradientColor1ACI
1070
     5
1001
GradientColor2ACI
1070
     2
1001
ACAD
1010
0.0
1020
0.0
1030
0.0
  0
SPLINE
  5
AA4
330
AA1
100
AcDbEntity
  8
Layer 1
370
     0
100
AcDbSpline
210
0.0
220
0.0
230
1.0
 70
    11
 71
     3
 72
   113
 73
   109
 74
     0
 42
0.000000001
 43
0.0000000001
 40
0.0
 40
0.0
 40
0.0
 40
0.0
 40
1.0
 40
1.0
 40
1.0
 40
2.0
 40
2.0
 40
2.0
 40
3.0
 40
3.0
 40
3.0
 40
4.0
 40
4.0
 40
4.0
 40
5.0
 40
5.0
 40
5.0
 40
6.0
 40
6.0
 40
6.0
 40
7.0
 40
7.0
 40
7.0
 40
8.0
 40
8.0
 40
8.0
 40
9.0
 40
9.0
 40
9.0
 40
10.0
 40
10.0
 40
10.0
 40
11.0
 40
11.0
 40
11.0
 40
12.0
 40
12.0
 40
12.0
 40
13.0
 40
13.0
 40
13.0
 40
14.0
 40
14.0
 40
14.0
 40
15.0
 40
15.0
 40
15.0
 40
16.0
 40
16.0
 40
16.0
 40
17.0
 40
17.0
 40
17.0
 40
18.0
 40
18.0
 40
18.0
 40
19.0
 40
19.0
 40
19.0
 40
20.0
 40
20.0
 40
20.0
 40
21.0
 40
21.0
 40
21.0
 40
22.0
 40
22.0
 40
22.0
 40
23.0
 40
23.0
 40
23.0
 40
24.0
 40
24.0
 40
24.0
 40
25.0
 40
25.0
 40
25.0
 40
26.0
 40
26.0
 40
26.0
 40
27.0
 40
27.0
 40
27.0
 40
28.0
 40
28.0
 40
28.0
 40
29.0
 40
29.0
 40
29.0
 40
30.0
 40
30.0
 40
30.0
 40
31.0
 40
31.0
 40
31.0
 40
32.0
 40
32.0
 40
32.0
 40
33.0
 40
33.0
 40
33.0
 40
34.0
 40
34.0
 40
34.0
 40
35.0
 40
35.0
 40
35.0
 40
36.0
 40
36.0
 40
36.0
 40
36.0
 10
1.531833224826389
 20
0.3962673611111112
 30
0.0
 10
1.531833224826389
 20
0.3962673611111112
 30
0.0
 10
1.35986328125
 20
-0.0575086805555558
 30
0.0
 10
1.35986328125
 20
-0.0575086805555558
 30
0.0
 10
1.359632703993056
 20
0.0888807508680554
 30
0.0
 10
1.215196397569444
 20
0.1187608506944442
 30
0.0
 10
1.168240017361111
 20
0.1303032769097223
 30
0.0
 10
1.006415473090277
 20
0.1720377604166665
 30
0.0
 10
0.9757893880208339
 20
0.1779649522569442
 30
0.0
 10
0.9757080078125
 20
0.2279324001736112
 30
0.0
 10
0.9757893880208339
 20
0.2821587456597223
 30
0.0
 10
1.028130425347222
 20
0.3011474609375
 30
0.0
 10
1.073269314236111
 20
0.301025390625
 30
0.0
 10
1.1412353515625
 20
0.3010932074652777
 30
0.0
 10
1.196180555555556
 20
0.2812906901041665
 30
0.0
 10
1.2008056640625
 20
0.2036539713541665
 30
0.0
 10
1.2008056640625
 20
0.2036539713541665
 30
0.0
 10
1.338094075520833
 20
0.2036539713541665
 30
0.0
 10
1.338094075520833
 20
0.2036539713541665
 30
0.0
 10
1.337917751736111
 20
0.3526882595486112
 30
0.0
 10
1.214192708333333
 20
0.4113362630208331
 30
0.0
 10
1.079698350694444
 20
0.4112820095486108
 30
0.0
 10
0.9644911024305562
 20
0.4113362630208331
 30
0.0
 10
0.8418511284722223
 20
0.3495551215277777
 30
0.0
 10
0.8387858072916669
 20
0.221150716145833
 30
0.0
 10
0.8290744357638892
 20
0.3570556640625
 30
0.0
 10
0.7102593315972224
 20
0.4111463758680554
 30
0.0
 10
0.5809868706597224
 20
0.4110378689236108
 30
0.0
 10
0.4646945529513893
 20
0.4110378689236108
 30
0.0
 10
0.3399929470486116
 20
0.34765625
 30
0.0
 10
0.3400607638888893
 20
0.2158745659722223
 30
0.0
 10
0.3401014539930562
 20
0.0946587456597223
 30
0.0
 10
0.4367947048611116
 20
0.0578342013888889
 30
0.0
 10
0.5325249565972224
 20
0.0324978298611112
 30
0.0
 10
0.6274278428819447
 20
0.0072157118055554
 30
0.0
 10
0.7240532769097224
 20
-0.004435221354167
 30
0.0
 10
0.7239854600694447
 20
-0.0740017361111112
 30
0.0
 10
0.7240532769097224
 20
-0.1399197048611112
 30
0.0
 10
0.648234049479167
 20
-0.1543240017361112
 30
0.0
 10
0.5986328125
 20
-0.1544867621527777
 30
0.0
 10
0.5225694444444447
 20
-0.1546223958333335
 30
0.0
 10
0.455891927083334
 20
-0.1210394965277777
 30
0.0
 10
0.4558241102430563
 20
-0.0352647569444447
 30
0.0
 10
0.4558241102430563
 20
-0.0352647569444447
 30
0.0
 10
0.3201768663194446
 20
-0.0352647569444447
 30
0.0
 10
0.3201768663194446
 20
-0.0352647569444447
 30
0.0
 10
0.3201768663194446
 20
-0.0352647569444447
 30
0.0
 10
0.15869140625
 20
0.395751953125
 30
0.0
 10
0.15869140625
 20
0.395751953125
 30
0.0
 10
0.15869140625
 20
0.395751953125
 30
0.0
 10
0.0135091145833339
 20
0.395751953125
 30
0.0
 10
0.0135091145833339
 20
0.395751953125
 30
0.0
 10
0.0135091145833339
 20
0.395751953125
 30
0.0
 10
-0.2310112847222219
 20
-0.249674479166667
 30
0.0
 10
-0.2310112847222219
 20
-0.249674479166667
 30
0.0
 10
-0.2310112847222219
 20
-0.249674479166667
 30
0.0
 10
-0.0874565972222215
 20
-0.2493353949652777
 30
0.0
 10
-0.0874565972222215
 20
-0.2493353949652777
 30
0.0
 10
-0.0874565972222215
 20
-0.2493353949652777
 30
0.0
 10
-0.0369059244791661
 20
-0.1057942708333335
 30
0.0
 10
-0.0369059244791661
 20
-0.1057942708333335
 30
0.0
 10
-0.0369059244791661
 20
-0.1057942708333335
 30
0.0
 10
0.2044542100694446
 20
-0.1058485243055558
 30
0.0
 10
0.2044542100694446
 20
-0.1058485243055558
 30
0.0
 10
0.2044542100694446
 20
-0.1058485243055558
 30
0.0
 10
0.2532552083333339
 20
-0.2493353949652777
 30
0.0
 10
0.2532552083333339
 20
-0.2493353949652777
 30
0.0
 10
0.2532552083333339
 20
-0.2493353949652777
 30
0.0
 10
0.400390625
 20
-0.2494032118055558
 30
0.0
 10
0.400390625
 20
-0.2494032118055558
 30
0.0
 10
0.400390625
 20
-0.2494032118055558
 30
0.0
 10
0.3777804904513893
 20
-0.1889919704861112
 30
0.0
 10
0.3777804904513893
 20
-0.1889919704861112
 30
0.0
 10
0.4297553168402777
 20
-0.2406141493055558
 30
0.0
 10
0.509684244791667
 20
-0.2647298177083335
 30
0.0
 10
0.5931667751736116
 20
-0.264567057291667
 30
0.0
 10
0.7222357855902777
 20
-0.264689127604167
 30
0.0
 10
0.8067220052083339
 20
-0.2164035373263888
 30
0.0
 10
0.8422037760416669
 20
-0.1436903211805558
 30
0.0
 10
0.8873019748263892
 20
-0.2265353732638888
 30
0.0
 10
0.9869113498263892
 20
-0.2644992404513888
 30
0.0
 10
1.091769748263889
 20
-0.2643771701388888
 30
0.0
 10
1.193033854166666
 20
-0.2643771701388888
 30
0.0
 10
1.266628689236111
 20
-0.2346327039930558
 30
0.0
 10
1.310818142361111
 20
-0.1867404513888888
 30
0.0
 10
1.310818142361111
 20
-0.1867404513888888
 30
0.0
 10
1.2872314453125
 20
-0.2489013671875
 30
0.0
 10
1.2872314453125
 20
-0.2489013671875
 30
0.0
 10
1.2872314453125
 20
-0.2489013671875
 30
0.0
 10
1.430867513020833
 20
-0.2489691840277777
 30
0.0
 10
1.430867513020833
 20
-0.2489691840277777
 30
0.0
 10
1.430867513020833
 20
-0.2489691840277777
 30
0.0
 10
1.481486002604166
 20
-0.105265299479167
 30
0.0
 10
1.481486002604166
 20
-0.105265299479167
 30
0.0
 10
1.481486002604166
 20
-0.105265299479167
 30
0.0
 10
1.722846137152777
 20
-0.1051296657986112
 30
0.0
 10
1.722846137152777
 20
-0.1051296657986112
 30
0.0
 10
1.722846137152777
 20
-0.1051296657986112
 30
0.0
 10
1.771620008680556
 20
-0.2487928602430558
 30
0.0
 10
1.771620008680556
 20
-0.2487928602430558
 30
0.0
 10
1.771620008680556
 20
-0.2487928602430558
 30
0.0
 10
1.918972439236111
 20
-0.2487928602430558
 30
0.0
 10
1.918972439236111
 20
-0.2487928602430558
 30
0.0
 10
1.918972439236111
 20
-0.2487928602430558
 30
0.0
 10
1.677395290798611
 20
0.3962673611111112
 30
0.0
 10
1.677395290798611
 20
0.3962673611111112
 30
0.0
 10
1.677395290798611
 20
0.3962673611111112
 30
0.0
 10
1.531833224826389
 20
0.3962673611111112
 30
0.0
 10
1.531833224826389
 20
0.3962673611111112
 30
0.0
  0
POLYLINE
  5
AA5
330
AA1
100
AcDbEntity
  8
Layer 1
370
     0
100
AcDb2dPolyline
 66
     1
 10
0.0
 20
0.0
 30
0.0
  0
VERTEX
  5
AA6
330
AA5
100
AcDbEntity
  8
Layer 1
370
     0
100
AcDbVertex
100
AcDb2dVertex
 10
0.0
 20
0.0
 30
0.0
  0
VERTEX
  5
AA7
330
AA5
100
AcDbEntity
  8
Layer 1
370
     0
100
AcDbVertex
100
AcDb2dVertex
 10
0.0840115017361116
 20
0.2366129557291665
 30
0.0
  0
VERTEX
  5
AA8
330
AA5
100
AcDbEntity
  8
Layer 1
370
     0
100
AcDbVertex
100
AcDb2dVertex
 10
0.0859239366319447
 20
0.2366129557291665
 30
0.0
  0
VERTEX
  5
AA9
330
AA5
100
AcDbEntity
  8
Layer 1
370
     0
100
AcDbVertex
100
AcDb2dVertex
 10
0.1672634548611116
 20
-0.0000542534722223
 30
0.0
  0
VERTEX
  5
AAA
330
AA5
100
AcDbEntity
  8
Layer 1
370
     0
100
AcDbVertex
100
AcDb2dVertex
 10
0.0
 20
0.0
 30
0.0
  0
SEQEND
  5
AAB
330
AA5
100
AcDbEntity
  8
Layer 1
370
     0
  0
SPLINE
  5
AAC
330
AA1
100
AcDbEntity
  8
Layer 1
370
     0
100
AcDbSpline
210
0.0
220
0.0
230
1.0
 70
     9
 71
     3
 72
    35
 73
    31
 74
     0
 42
0.000000001
 43
0.0000000001
 40
0.0
 40
0.0
 40
0.0
 40
0.0
 40
1.0
 40
1.0
 40
1.0
 40
2.0
 40
2.0
 40
2.0
 40
3.0
 40
3.0
 40
3.0
 40
4.0
 40
4.0
 40
4.0
 40
5.0
 40
5.0
 40
5.0
 40
6.0
 40
6.0
 40
6.0
 40
7.0
 40
7.0
 40
7.0
 40
8.0
 40
8.0
 40
8.0
 40
9.0
 40
9.0
 40
9.0
 40
10.0
 40
10.0
 40
10.0
 40
10.0
 10
1.096856011284722
 20
-0.1541341145833335
 30
0.0
 10
1.021104600694444
 20
-0.1543240017361112
 30
0.0
 10
0.9542507595486116
 20
-0.120849609375
 30
0.0
 10
0.9539794921875
 20
-0.0352647569444447
 30
0.0
 10
0.9539794921875
 20
-0.0352647569444447
 30
0.0
 10
0.8599446614583339
 20
-0.0351426866319447
 30
0.0
 10
0.8599446614583339
 20
-0.0351426866319447
 30
0.0
 10
0.8459201388888892
 20
0.0917154947916665
 30
0.0
 10
0.714314778645834
 20
0.1189914279513888
 30
0.0
 10
0.669677734375
 20
0.1301812065972223
 30
0.0
 10
0.508260091145834
 20
0.1716715494791665
 30
0.0
 10
0.4774034288194447
 20
0.1780734592013888
 30
0.0
 10
0.4772813585069447
 20
0.2276746961805554
 30
0.0
 10
0.4775390625
 20
0.2819146050347223
 30
0.0
 10
0.5297580295138893
 20
0.3009711371527777
 30
0.0
 10
0.574869791666667
 20
0.3008490668402777
 30
0.0
 10
0.6427273220486116
 20
0.3008490668402777
 30
0.0
 10
0.6976589626736116
 20
0.2811821831597223
 30
0.0
 10
0.7022705078125
 20
0.2034640842013888
 30
0.0
 10
0.7022705078125
 20
0.2034640842013888
 30
0.0
 10
0.8391384548611116
 20
0.2034640842013888
 30
0.0
 10
0.8391384548611116
 20
0.2034640842013888
 30
0.0
 10
0.8457845052083339
 20
0.0925428602430554
 30
0.0
 10
0.9385715060763892
 20
0.0570339626736112
 30
0.0
 10
1.030843098958333
 20
0.0328776041666665
 30
0.0
 10
1.125827365451389
 20
0.0075547960069442
 30
0.0
 10
1.222574869791666
 20
-0.004069010416667
 30
0.0
 10
1.222642686631944
 20
-0.0737033420138889
 30
0.0
 10
1.222574869791666
 20
-0.1396213107638888
 30
0.0
 10
1.146755642361111
 20
-0.1541341145833335
 30
0.0
 10
1.096856011284722
 20
-0.1541341145833335
 30
0.0
  0
POLYLINE
  5
AAD
330
AA1
100
AcDbEntity
  8
Layer 1
370
     0
100
AcDb2dPolyline
 66
     1
 10
0.0
 20
0.0
 30
0.0
  0
VERTEX
  5
AAE
330
AAD
100
AcDbEntity
  8
Layer 1
370
     0
100
AcDbVertex
100
AcDb2dVertex
 10
1.518324110243056
 20
0.00048828125
 30
0.0
  0
VERTEX
  5
AAF
330
AAD
100
AcDbEntity
  8
Layer 1
370
     0
100
AcDbVertex
100
AcDb2dVertex
 10
1.6024169921875
 20
0.2370876736111112
 30
0.0
  0
VERTEX
  5
AB0
330
AAD
100
AcDbEntity
  8
Layer 1
370
     0
100
AcDbVertex
100
AcDb2dVertex
 10
1.604166666666666
 20
0.2370876736111112
 30
0.0
  0
VERTEX
  5
AB1
330
AAD
100
AcDbEntity
  8
Layer 1
370
     0
100
AcDbVertex
100
AcDb2dVertex
 10
1.685791015625
 20
0.000569661458333
 30
0.0
  0
VERTEX
  5
AB2
330
AAD
100
AcDbEntity
  8
Layer 1
370
     0
100
AcDbVertex
100
AcDb2dVertex
 10
1.518324110243056
 20
0.00048828125
 30
0.0
  0
SEQEND
  5
AB3
330
AAD
100
AcDbEntity
  8
Layer 1
370
     0
  0
SPLINE
  5
AB4
330
AA1
100
AcDbEntity
  8
Layer 1
370
     0
100
AcDbSpline
210
0.0
220
0.0
230
1.0
 70
     9
 71
     3
 72
    53
 73
    49
 74
     0
 42
0.000000001
 43
0.0000000001
 40
0.0
 40
0.0
 40
0.0
 40
0.0
 40
1.0
 40
1.0
 40
1.0
 40
2.0
 40
2.0
 40
2.0
 40
3.0
 40
3.0
 40
3.0
 40
4.0
 40
4.0
 40
4.0
 40
5.0
 40
5.0
 40
5.0
 40
6.0
 40
6.0
 40
6.0
 40
7.0
 40
7.0
 40
7.0
 40
8.0
 40
8.0
 40
8.0
 40
9.0
 40
9.0
 40
9.0
 40
10.0
 40
10.0
 40
10.0
 40
11.0
 40
11.0
 40
11.0
 40
12.0
 40
12.0
 40
12.0
 40
13.0
 40
13.0
 40
13.0
 40
14.0
 40
14.0
 40
14.0
 40
15.0
 40
15.0
 40
15.0
 40
16.0
 40
16.0
 40
16.0
 40
16.0
 10
3.062649197048611
 20
0.1022135416666665
 30
0.0
 10
3.118801540798611
 20
0.1293674045138888
 30
0.0
 10
3.150404188368055
 20
0.1737603081597223
 30
0.0
 10
3.1505126953125
 20
0.2369791666666665
 30
0.0
 10
3.150404188368055
 20
0.3570556640625
 30
0.0
 10
3.067206488715277
 20
0.396931966145833
 30
0.0
 10
2.9442138671875
 20
0.3967692057291665
 30
0.0
 10
2.9442138671875
 20
0.3967692057291665
 30
0.0
 10
2.640625
 20
0.3966471354166665
 30
0.0
 10
2.640625
 20
0.3966471354166665
 30
0.0
 10
2.640625
 20
0.3966471354166665
 30
0.0
 10
2.640950520833333
 20
-0.2007649739583335
 30
0.0
 10
2.640950520833333
 20
-0.2007649739583335
 30
0.0
 10
2.640950520833333
 20
-0.2007649739583335
 30
0.0
 10
2.417331271701389
 20
0.3966471354166665
 30
0.0
 10
2.417331271701389
 20
0.3966471354166665
 30
0.0
 10
2.417331271701389
 20
0.3966471354166665
 30
0.0
 10
2.271714952256944
 20
0.3965115017361112
 30
0.0
 10
2.271714952256944
 20
0.3965115017361112
 30
0.0
 10
2.271714952256944
 20
0.3965115017361112
 30
0.0
 10
2.027086046006944
 20
-0.2487928602430558
 30
0.0
 10
2.027086046006944
 20
-0.2487928602430558
 30
0.0
 10
2.027086046006944
 20
-0.2487928602430558
 30
0.0
 10
2.170966254340277
 20
-0.2487386067708335
 30
0.0
 10
2.170966254340277
 20
-0.2487386067708335
 30
0.0
 10
2.170966254340277
 20
-0.2487386067708335
 30
0.0
 10
2.221367730034722
 20
-0.104899088541667
 30
0.0
 10
2.221367730034722
 20
-0.104899088541667
 30
0.0
 10
2.221367730034722
 20
-0.104899088541667
 30
0.0
 10
2.462754991319444
 20
-0.105021158854167
 30
0.0
 10
2.462754991319444
 20
-0.105021158854167
 30
0.0
 10
2.462754991319444
 20
-0.105021158854167
 30
0.0
 10
2.511515299479166
 20
-0.2485487196180558
 30
0.0
 10
2.511515299479166
 20
-0.2485487196180558
 30
0.0
 10
2.511515299479166
 20
-0.2485487196180558
 30
0.0
 10
2.658827039930555
 20
-0.2484130859375
 30
0.0
 10
2.658827039930555
 20
-0.2484130859375
 30
0.0
 10
2.658827039930555
 20
-0.2484130859375
 30
0.0
 10
2.658827039930555
 20
-0.2484130859375
 30
0.0
 10
2.658827039930555
 20
-0.2484130859375
 30
0.0
 10
2.658827039930555
 20
-0.2484130859375
 30
0.0
 10
2.9537353515625
 20
-0.2483045789930558
 30
0.0
 10
2.9537353515625
 20
-0.2483045789930558
 30
0.0
 10
3.0701904296875
 20
-0.2483045789930558
 30
0.0
 10
3.1812744140625
 20
-0.1920844184027777
 30
0.0
 10
3.181342230902777
 20
-0.0610894097222223
 30
0.0
 10
3.1812744140625
 20
0.0193142361111112
 30
0.0
 10
3.141343858506944
 20
0.0797797309027777
 30
0.0
 10
3.062649197048611
 20
0.1022135416666665
 30
0.0
  0
POLYLINE
  5
AB5
330
AA1
100
AcDbEntity
  8
Layer 1
370
     0
100
AcDb2dPolyline
 66
     1
 10
0.0
 20
0.0
 30
0.0
  0
VERTEX
  5
AB6
330
AB5
100
AcDbEntity
  8
Layer 1
370
     0
100
AcDbVertex
100
AcDb2dVertex
 10
2.258327907986111
 20
0.0007052951388888
 30
0.0
  0
VERTEX
  5
AB7
330
AB5
100
AcDbEntity
  8
Layer 1
370
     0
100
AcDbVertex
100
AcDb2dVertex
 10
2.342447916666666
 20
0.2374674479166665
 30
0.0
  0
VERTEX
  5
AB8
330
AB5
100
AcDbEntity
  8
Layer 1
370
     0
100
AcDbVertex
100
AcDb2dVertex
 10
2.344251844618055
 20
0.2374674479166665
 30
0.0
  0
VERTEX
  5
AB9
330
AB5
100
AcDbEntity
  8
Layer 1
370
     0
100
AcDbVertex
100
AcDb2dVertex
 10
2.425632052951389
 20
0.0007052951388888
 30
0.0
  0
VERTEX
  5
ABA
330
AB5
100
AcDbEntity
  8
Layer 1
370
     0
100
AcDbVertex
100
AcDb2dVertex
 10
2.258327907986111
 20
0.0007052951388888
 30
0.0
  0
SEQEND
  5
ABB
330
AB5
100
AcDbEntity
  8
Layer 1
370
     0
  0
SPLINE
  5
ABC
330
AA1
100
AcDbEntity
  8
Layer 1
370
     0
100
AcDbSpline
210
0.0
220
0.0
230
1.0
 70
    11
 71
     3
 72
    20
 73
    16
 74
     0
 42
0.000000001
 43
0.0000000001
 40
0.0
 40
0.0
 40
0.0
 40
0.0
 40
1.0
 40
1.0
 40
1.0
 40
2.0
 40
2.0
 40
2.0
 40
3.0
 40
3.0
 40
3.0
 40
4.0
 40
4.0
 40
4.0
 40
5.0
 40
5.0
 40
5.0
 40
5.0
 10
2.782687717013889
 20
0.2865125868055553
 30
0.0
 10
2.782687717013889
 20
0.2865125868055553
 30
0.0
 10
2.915432400173611
 20
0.2866346571180553
 30
0.0
 10
2.915432400173611
 20
0.2866346571180553
 30
0.0
 10
2.965928819444444
 20
0.2865125868055553
 30
0.0
 10
3.0130615234375
 20
0.2739935980902777
 30
0.0
 10
3.013224283854166
 20
0.2125244140625
 30
0.0
 10
3.013115776909722
 20
0.1582302517361112
 30
0.0
 10
2.975925021701389
 20
0.1356065538194442
 30
0.0
 10
2.926500108506944
 20
0.1356743706597223
 30
0.0
 10
2.926500108506944
 20
0.1356743706597223
 30
0.0
 10
2.782741970486111
 20
0.1353759765625
 30
0.0
 10
2.782741970486111
 20
0.1353759765625
 30
0.0
 10
2.782741970486111
 20
0.1353759765625
 30
0.0
 10
2.782687717013889
 20
0.2865125868055553
 30
0.0
 10
2.782687717013889
 20
0.2865125868055553
 30
0.0
  0
SPLINE
  5
ABD
330
AA1
100
AcDbEntity
  8
Layer 1
370
     0
100
AcDbSpline
210
0.0
220
0.0
230
1.0
 70
     9
 71
     3
 72
    20
 73
    16
 74
     0
 42
0.000000001
 43
0.0000000001
 40
0.0
 40
0.0
 40
0.0
 40
0.0
 40
1.0
 40
1.0
 40
1.0
 40
2.0
 40
2.0
 40
2.0
 40
3.0
 40
3.0
 40
3.0
 40
4.0
 40
4.0
 40
4.0
 40
5.0
 40
5.0
 40
5.0
 40
5.0
 10
2.934719509548611
 20
-0.1380072699652777
 30
0.0
 10
2.934719509548611
 20
-0.1380072699652777
 30
0.0
 10
2.782877604166666
 20
-0.1381700303819446
 30
0.0
 10
2.782877604166666
 20
-0.1381700303819446
 30
0.0
 10
2.782877604166666
 20
-0.1381700303819446
 30
0.0
 10
2.782782660590277
 20
0.0389811197916665
 30
0.0
 10
2.782782660590277
 20
0.0389811197916665
 30
0.0
 10
2.782782660590277
 20
0.0389811197916665
 30
0.0
 10
2.937296549479166
 20
0.0391031901041665
 30
0.0
 10
2.937296549479166
 20
0.0391031901041665
 30
0.0
 10
2.997775607638889
 20
0.0391710069444442
 30
0.0
 10
3.039510091145833
 20
0.0128309461805554
 30
0.0
 10
3.039320203993055
 20
-0.0531141493055558
 30
0.0
 10
3.039320203993055
 20
-0.1200493706597223
 30
0.0
 10
2.990505642361111
 20
-0.1380886501736112
 30
0.0
 10
2.934719509548611
 20
-0.1380072699652777
 30
0.0
  0
SPLINE
  5
ABE
330
AA1
100
AcDbEntity
  8
Layer 1
370
     0
100
AcDbSpline
210
0.0
220
0.0
230
1.0
 70
     9
 71
     3
 72
    38
 73
    34
 74
     0
 42
0.000000001
 43
0.0000000001
 40
0.0
 40
0.0
 40
0.0
 40
0.0
 40
1.0
 40
1.0
 40
1.0
 40
2.0
 40
2.0
 40
2.0
 40
3.0
 40
3.0
 40
3.0
 40
4.0
 40
4.0
 40
4.0
 40
5.0
 40
5.0
 40
5.0
 40
6.0
 40
6.0
 40
6.0
 40
7.0
 40
7.0
 40
7.0
 40
8.0
 40
8.0
 40
8.0
 40
9.0
 40
9.0
 40
9.0
 40
10.0
 40
10.0
 40
10.0
 40
11.0
 40
11.0
 40
11.0
 40
11.0
 10
3.845662434895833
 20
0.4122178819444447
 30
0.0
 10
3.646077473958333
 20
0.4124891493055554
 30
0.0
 10
3.528564453125
 20
0.2633734809027777
 30
0.0
 10
3.528754340277777
 20
0.0717230902777777
 30
0.0
 10
3.528876410590277
 20
-0.0035942925347223
 30
0.0
 10
3.548366970486111
 20
-0.0725233289930558
 30
0.0
 10
3.584404839409722
 20
-0.1282280815972223
 30
0.0
 10
3.584404839409722
 20
-0.1282280815972223
 30
0.0
 10
3.345703125
 20
-0.1290554470486112
 30
0.0
 10
3.345703125
 20
-0.1290554470486112
 30
0.0
 10
3.345703125
 20
-0.1290554470486112
 30
0.0
 10
3.343817816840277
 20
0.3985731336805553
 30
0.0
 10
3.343817816840277
 20
0.3985731336805553
 30
0.0
 10
3.343817816840277
 20
0.3985731336805553
 30
0.0
 10
3.202012803819444
 20
0.39794921875
 30
0.0
 10
3.202012803819444
 20
0.39794921875
 30
0.0
 10
3.202012803819444
 20
0.39794921875
 30
0.0
 10
3.203965928819444
 20
-0.2480740017361112
 30
0.0
 10
3.203965928819444
 20
-0.2480740017361112
 30
0.0
 10
3.203965928819444
 20
-0.2480740017361112
 30
0.0
 10
3.614217122395833
 20
-0.2463921440972223
 30
0.0
 10
3.614217122395833
 20
-0.2463921440972223
 30
0.0
 10
3.614217122395833
 20
-0.2463921440972223
 30
0.0
 10
3.613742404513889
 20
-0.1668701171875
 30
0.0
 10
3.613742404513889
 20
-0.1668701171875
 30
0.0
 10
3.66796875
 20
-0.2266574435763888
 30
0.0
 10
3.746771918402777
 20
-0.263427734375
 30
0.0
 10
3.8460693359375
 20
-0.2633056640625
 30
0.0
 10
4.045694986979166
 20
-0.2633056640625
 30
0.0
 10
4.163018120659723
 20
-0.1141357421875
 30
0.0
 10
4.162841796875
 20
0.0719129774305554
 30
0.0
 10
4.162977430555555
 20
0.2634955512152777
 30
0.0
 10
4.045274522569444
 20
0.4125434027777777
 30
0.0
 10
3.845662434895833
 20
0.4122178819444447
 30
0.0
  0
SPLINE
  5
ABF
330
AA1
100
AcDbEntity
  8
Layer 1
370
     0
100
AcDbSpline
210
0.0
220
0.0
230
1.0
 70
     9
 71
     3
 72
    17
 73
    13
 74
     0
 42
0.000000001
 43
0.0000000001
 40
0.0
 40
0.0
 40
0.0
 40
0.0
 40
1.0
 40
1.0
 40
1.0
 40
2.0
 40
2.0
 40
2.0
 40
3.0
 40
3.0
 40
3.0
 40
4.0
 40
4.0
 40
4.0
 40
4.0
 10
3.845974392361111
 20
-0.1441921657986112
 30
0.0
 10
3.718505859375
 20
-0.1442599826388888
 30
0.0
 10
3.670722113715277
 20
-0.0357530381944447
 30
0.0
 10
3.6705322265625
 20
0.0717230902777777
 30
0.0
 10
3.670477973090277
 20
0.1846110026041665
 30
0.0
 10
3.71826171875
 20
0.293050130208333
 30
0.0
 10
3.845770941840277
 20
0.2931179470486112
 30
0.0
 10
3.973198784722223
 20
0.2931179470486112
 30
0.0
 10
4.021063910590278
 20
0.1848008897569442
 30
0.0
 10
4.021294487847223
 20
0.0720350477430554
 30
0.0
 10
4.021335177951389
 20
-0.0356987847222223
 30
0.0
 10
3.973320855034723
 20
-0.1439887152777777
 30
0.0
 10
3.845974392361111
 20
-0.1441921657986112
 30
0.0
  0
POLYLINE
  5
AC0
330
AA1
100
AcDbEntity
  8
Layer 1
370
     0
100
AcDb2dPolyline
 66
     1
 10
0.0
 20
0.0
 30
0.0
  0
VERTEX
  5
AC1
330
AC0
100
AcDbEntity
  8
Layer 1
370
     0
100
AcDbVertex
100
AcDb2dVertex
 10
4.52395290798611
 20
0.3973659939236107
 30
0.0
  0
VERTEX
  5
AC2
330
AC0
100
AcDbEntity
  8
Layer 1
370
     0
100
AcDbVertex
100
AcDb2dVertex
 10
4.374159071180555
 20
0.1425103081597223
 30
0.0
  0
VERTEX
  5
AC3
330
AC0
100
AcDbEntity
  8
Layer 1
370
     0
100
AcDbVertex
100
AcDb2dVertex
 10
4.223117404513889
 20
0.3970675998263884
 30
0.0
  0
VERTEX
  5
AC4
330
AC0
100
AcDbEntity
  8
Layer 1
370
     0
100
AcDbVertex
100
AcDb2dVertex
 10
4.06313747829861
 20
0.3971218532986107
 30
0.0
  0
VERTEX
  5
AC5
330
AC0
100
AcDbEntity
  8
Layer 1
370
     0
100
AcDbVertex
100
AcDb2dVertex
 10
4.300699869791666
 20
0.0034722222222223
 30
0.0
  0
VERTEX
  5
AC6
330
AC0
100
AcDbEntity
  8
Layer 1
370
     0
100
AcDbVertex
100
AcDb2dVertex
 10
4.300971137152778
 20
-0.2478841145833335
 30
0.0
  0
VERTEX
  5
AC7
330
AC0
100
AcDbEntity
  8
Layer 1
370
     0
100
AcDbVertex
100
AcDb2dVertex
 10
4.44289822048611
 20
-0.2479519314236112
 30
0.0
  0
VERTEX
  5
AC8
330
AC0
100
AcDbEntity
  8
Layer 1
370
     0
100
AcDbVertex
100
AcDb2dVertex
 10
4.442599826388889
 20
-0.0001763237847223
 30
0.0
  0
VERTEX
  5
AC9
330
AC0
100
AcDbEntity
  8
Layer 1
370
     0
100
AcDbVertex
100
AcDb2dVertex
 10
4.681993272569444
 20
0.3972574869791669
 30
0.0
  0
VERTEX
  5
ACA
330
AC0
100
AcDbEntity
  8
Layer 1
370
     0
100
AcDbVertex
100
AcDb2dVertex
 10
4.52395290798611
 20
0.3973659939236107
 30
0.0
  0
SEQEND
  5
ACB
330
AC0
100
AcDbEntity
  8
Layer 1
370
     0
  0
ENDBLK
  5
ACC
330
AA1
100
AcDbEntity
  8
0
100
AcDbBlockEnd
  0
BLOCK
  5
B2C
330
B2B
100
AcDbEntity
  8
0
100
AcDbBlockBegin
  2
T5R1BL - insert
 70
     0
 10
0.0
 20
0.0
 30
0.0
  3
T5R1BL - insert
  1

  0
LINE
  5
B2D
330
B2B
100
AcDbEntity
  8
R-SWTS-DET1
  6
Continuous
370
    15
100
AcDbLine
 10
-0.0162499999999994
 20
-0.2037500005208072
 30
0.0
 11
-0.0162499999999994
 21
-0.2375000008462567
 31
0.0
  0
ARC
  5
B2E
330
B2B
100
AcDbEntity
  8
R-SWTS-DET1
  6
Continuous
370
    15
100
AcDbCircle
 10
-0.0262499999999992
 20
-0.20375
 30
0.0
 40
0.0100000000000001
100
AcDbArc
 50
0.0
 51
90.0
  0
LINE
  5
B2F
330
B2B
100
AcDbEntity
  8
R-SWTS-DET1
  6
Continuous
370
    15
100
AcDbLine
 10
-0.076249998541563
 20
-0.1937499999999999
 30
0.0
 11
-0.0262500005208075
 21
-0.1937499999999999
 31
0.0
  0
LINE
  5
B30
330
B2B
100
AcDbEntity
  8
R-SWTS-DET1
  6
Continuous
370
    15
100
AcDbLine
 10
-0.076249998541563
 20
-0.0437500036460912
 30
0.0
 11
-0.076249998541563
 21
-0.1937499999999999
 31
0.0
  0
LINE
  5
B31
330
B2B
100
AcDbEntity
  8
R-SWTS-DET1
  6
Continuous
370
    15
100
AcDbLine
 10
-0.0262500005208075
 20
-0.0437500036460912
 30
0.0
 11
-0.076249998541563
 21
-0.0437500036460912
 31
0.0
  0
ARC
  5
B32
330
B2B
100
AcDbEntity
  8
R-SWTS-DET1
  6
Continuous
370
    15
100
AcDbCircle
 10
-0.0262499999999992
 20
-0.03375
 30
0.0
 40
0.01
100
AcDbArc
 50
270.000000000001
 51
0.0000000000005089
  0
LINE
  5
B33
330
B2B
100
AcDbEntity
  8
R-SWTS-DET1
  6
Continuous
370
    15
100
AcDbLine
 10
-0.0162499999999994
 20
0.0000000017834463
 30
0.0
 11
-0.0162499999999994
 21
-0.0337499916670828
 31
0.0
  0
ARC
  5
B34
330
B2B
100
AcDbEntity
  8
R-SWTS-DET1
  6
Continuous
370
    15
100
AcDbCircle
 10
0.0
 20
0.0
 30
0.0
 40
0.01625
100
AcDbArc
 50
0.0
 51
180.0
  0
LINE
  5
B35
330
B2B
100
AcDbEntity
  8
R-SWTS-DET1
  6
Continuous
370
    15
100
AcDbLine
 10
0.0162499999738941
 20
-0.0657499970002905
 30
0.0
 11
0.0162499999738941
 21
0.0000000017834463
 31
0.0
  0
ARC
  5
B36
330
B2B
100
AcDbEntity
  8
R-SWTS-DET1
  6
Continuous
370
    15
100
AcDbCircle
 10
0.0062500000000014
 20
-0.0657500000000001
 30
0.0
 40
0.01
100
AcDbArc
 50
270.000000000001
 51
0.0000000000005089
  0
LINE
  5
B37
330
B2B
100
AcDbEntity
  8
R-SWTS-DET1
  6
Continuous
370
    15
100
AcDbLine
 10
-0.0342499995624692
 20
-0.0757499998127381
 30
0.0
 11
0.0062499994530878
 21
-0.0757499998127381
 31
0.0
  0
ARC
  5
B38
330
B2B
100
AcDbEntity
  8
R-SWTS-DET1
  6
Continuous
370
    15
100
AcDbCircle
 10
-0.0342500000000001
 20
-0.0857500000000001
 30
0.0
 40
0.0100000000000001
100
AcDbArc
 50
90.0
 51
180.0
  0
LINE
  5
B39
330
B2B
100
AcDbEntity
  8
R-SWTS-DET1
  6
Continuous
370
    15
100
AcDbLine
 10
-0.0442500000832755
 20
-0.1517500010209054
 30
0.0
 11
-0.0442500000832755
 21
-0.0857500026251856
 31
0.0
  0
ARC
  5
B3A
330
B2B
100
AcDbEntity
  8
R-SWTS-DET1
  6
Continuous
370
    15
100
AcDbCircle
 10
-0.0342500000000001
 20
-0.1517499999999998
 30
0.0
 40
0.0100000000000001
100
AcDbArc
 50
180.0
 51
270.000000000001
  0
LINE
  5
B3B
330
B2B
100
AcDbEntity
  8
R-SWTS-DET1
  6
Continuous
370
    15
100
AcDbLine
 10
0.0062499994530878
 20
-0.1617499992500726
 30
0.0
 11
-0.0342499995624692
 21
-0.1617499992500726
 31
0.0
  0
ARC
  5
B3C
330
B2B
100
AcDbEntity
  8
R-SWTS-DET1
  6
Continuous
370
    15
100
AcDbCircle
 10
0.0062500000000014
 20
-0.1717499999999998
 30
0.0
 40
0.01
100
AcDbArc
 50
359.9999999999998
 51
90.0
  0
LINE
  5
B3D
330
B2B
100
AcDbEntity
  8
R-SWTS-DET1
  6
Continuous
370
    15
100
AcDbLine
 10
0.0162499999738941
 20
-0.2375000008462567
 30
0.0
 11
0.0162499999738941
 21
-0.1717499997708799
 31
0.0
  0
ARC
  5
B3E
330
B2B
100
AcDbEntity
  8
R-SWTS-DET1
  6
Continuous
370
    15
100
AcDbCircle
 10
0.0
 20
-0.2374999999999999
 30
0.0
 40
0.01625
100
AcDbArc
 50
180.0
 51
0.0
  0
ARC
  5
B3F
330
B2B
100
AcDbEntity
  8
R-SWTS-DET1
  6
Continuous
370
    15
100
AcDbCircle
 10
-0.1412499999999994
 20
0.0462500000000001
 30
0.0
 40
0.03
100
AcDbArc
 50
0.0000000000004453
 51
90.0
  0
LINE
  5
B40
330
B2B
100
AcDbEntity
  8
R-SWTS-DET1
  6
Continuous
370
    15
100
AcDbLine
 10
-0.14124999848935
 20
0.0762500026035966
 30
0.0
 11
-0.261250004739038
 21
0.0762500026035966
 31
0.0
  0
ARC
  5
B41
330
B2B
100
AcDbEntity
  8
R-SWTS-DET1
  6
Continuous
370
    15
100
AcDbCircle
 10
-0.2612499999999986
 20
0.0462500000000001
 30
0.0
 40
0.03
100
AcDbArc
 50
89.99999999999898
 51
180.000000000001
  0
LINE
  5
B42
330
B2B
100
AcDbEntity
  8
R-SWTS-DET1
  6
Continuous
370
    15
100
AcDbLine
 10
-0.291249994843259
 20
0.0462499941662542
 30
0.0
 11
-0.291249994843259
 21
-0.101166700363511
 31
0.0
  0
ARC
  5
B43
330
B2B
100
AcDbEntity
  8
R-SWTS-DET1
  6
Continuous
370
    15
100
AcDbCircle
 10
-0.2612499999999986
 20
-0.1011666975080219
 30
0.0
 40
0.0299999999999999
100
AcDbArc
 50
179.9999999999998
 51
240.0000000000009
  0
LINE
  5
B44
330
B2B
100
AcDbEntity
  8
R-SWTS-DET1
  6
Continuous
370
    15
100
AcDbLine
 10
-0.2762499997911476
 20
-0.1271474606482179
 30
0.0
 11
-0.1562500027080205
 21
-0.1964294919889882
 31
0.0
  0
ARC
  5
B45
330
B2B
100
AcDbEntity
  8
R-SWTS-DET1
  6
Continuous
370
    15
100
AcDbCircle
 10
-0.1412499999999994
 20
-0.170448729810777
 30
0.0
 40
0.03
100
AcDbArc
 50
240.0000000000005
 51
0.0000000000006997
  0
LINE
  5
B46
330
B2B
100
AcDbEntity
  8
R-SWTS-DET1
  6
Continuous
370
    15
100
AcDbLine
 10
-0.1112499992185683
 20
-0.1704487308449163
 30
0.0
 11
-0.1112499992185683
 21
0.0462499941662542
 31
0.0
  0
LINE
  5
B47
330
B2B
100
AcDbEntity
  8
R-SWTS-DET1
  6
Continuous
370
    15
100
AcDbLine
 10
-0.076249998541563
 20
-0.2137500010416145
 30
0.0
 11
-0.076249998541563
 21
0.0712499920308121
 31
0.0
  0
LINE
  5
B48
330
B2B
100
AcDbEntity
  8
R-SWTS-DET1
  6
Continuous
370
    15
100
AcDbLine
 10
-0.3062500082284902
 20
-0.1502414692809262
 30
0.0
 11
-0.1362499970831266
 21
-0.2483910162823171
 31
0.0
  0
ARC
  5
B49
330
B2B
100
AcDbEntity
  8
R-SWTS-DET1
  6
Continuous
370
    15
100
AcDbCircle
 10
-0.286249999999999
 20
-0.1156004542377627
 30
0.0
 40
0.04
100
AcDbArc
 50
179.9999999999998
 51
240.0000000000006
  0
LINE
  5
B4A
330
B2B
100
AcDbEntity
  8
R-SWTS-DET1
  6
Continuous
370
    15
100
AcDbLine
 10
-0.3262499955202642
 20
0.0712499920308121
 30
0.0
 11
-0.3262499955202642
 21
-0.115600458623504
 31
0.0
  0
ARC
  5
B4B
330
B2B
100
AcDbEntity
  8
R-SWTS-DET1
  6
Continuous
370
    15
100
AcDbCircle
 10
-0.286249999999999
 20
0.07125
 30
0.0
 40
0.04
100
AcDbArc
 50
90.0
 51
180.0000000000012
  0
LINE
  5
B4C
330
B2B
100
AcDbEntity
  8
R-SWTS-DET1
  6
Continuous
370
    15
100
AcDbLine
 10
-0.1162500006247917
 20
0.1112500032806021
 30
0.0
 11
-0.2862500026035963
 21
0.1112500032806021
 31
0.0
  0
ARC
  5
B4D
330
B2B
100
AcDbEntity
  8
R-SWTS-DET1
  6
Continuous
370
    15
100
AcDbCircle
 10
-0.1162499999999991
 20
0.07125
 30
0.0
 40
0.04
100
AcDbArc
 50
0.0000000000003181
 51
90.0
  0
ARC
  5
B4E
330
B2B
100
AcDbEntity
  8
R-SWTS-DET1
  6
Continuous
370
    15
100
AcDbCircle
 10
-0.1162499999999991
 20
-0.21375
 30
0.0
 40
0.04
100
AcDbArc
 50
240.0000000000006
 51
0.0
  0
ENDBLK
  5
B4F
330
B2B
100
AcDbEntity
  8
0
100
AcDbBlockEnd
  0
ENDSEC
  0
SECTION
  2
ENTITIES
  0
LEADER
  5
10A
330
A
100
AcDbEntity
  8
R-ANNO-TEXT
  6
Continuous
100
AcDbLeader
  3
SCADMECH
 73
     0
 74
     0
 75
     1
 40
0.4226190476190477
 41
3.20238095238095
 76
     3
 10
6.348824593125966
 20
0.1137344290412128
 30
0.0
 10
6.577377983719239
 20
-0.2398189615520611
 30
0.0
 10
6.702377983719239
 20
-0.2398189615520611
 30
0.0
340
10B
213
0.0
223
-0.0375
233
0.0
1001
ACAD
1000
DSTYLE
1002
{
1070
   147
1040
0.09
1070
    77
1070
     0
1002
}
  0
MTEXT
  5
10B
102
{ACAD_REACTORS
330
10A
102
}
330
A
100
AcDbEntity
  8
R-ANNO-TEXT
  6
Continuous
100
AcDbMText
 10
6.792377983719239
 20
-0.2023189615520611
 30
0.0
 40
0.125
 41
0.0
 71
     4
 72
     1
  1
No. 10-24 x 3/4" FHMS, Phillips\P(Factory Provided)
  7
SWTSTEXT
 73
     1
 44
1.0
  0
MTEXT
  5
10C
330
A
100
AcDbEntity
  8
R-ANNO-TEXT
  6
Continuous
100
AcDbMText
 10
7.065898593125979
 20
-0.7624759615520614
 30
0.0
 40
0.125
 41
2.110199999999999
 71
     5
 72
     5
  1
184_T
  7
SWTSTEXT
 73
     1
 44
1.0
  0
DIMENSION
  5
2B1
330
A
100
AcDbEntity
  8
R-ANNO-DIMS
  6
Continuous
100
AcDbDimension
  2
*D0
 10
6.020824593125977
 20
1.113734428794145
 30
0.0
 11
6.333324592907625
 21
1.113734428794145
 31
0.0
 70
   160
 71
     5
 42
0.6250000000000009
  3
SCADMECH
100
AcDbAlignedDimension
 13
6.645824593125978
 23
0.5197354290412118
 33
0.0
 14
6.020824593125977
 24
0.8387344290412123
 34
0.0
100
AcDbRotatedDimension
  0
DIMENSION
  5
2E3
330
A
100
AcDbEntity
  8
R-ANNO-DIMS
  6
Continuous
100
AcDbDimension
  2
*D1
 10
6.895824592907625
 20
0.4887354290412121
 30
0.0
 11
6.895824592907625
 21
0.676234929041213
 31
0.0
 70
   160
 71
     5
 42
0.3749990000000016
  3
SCADMECH
100
AcDbAlignedDimension
 13
6.561989137887419
 23
0.8637344290412137
 33
0.0
 14
6.645824593125978
 24
0.4887354290412121
 34
0.0
 50
90.0
100
AcDbRotatedDimension
  0
INSERT
  5
5C0
330
A
100
AcDbEntity
  8
R-SWTS-DET2
  6
Continuous
100
AcDbBlockReference
  2
10x075CountersunkMachineScrew - Phillips
 10
6.348824593125979
 20
0.8637344290412126
 30
0.0
 50
90.0
  0
LWPOLYLINE
  5
5C8
330
A
100
AcDbEntity
  8
R-SWTS-DET1
100
AcDbPolyline
 90
       17
 70
     1
 43
0.0
 10
6.020824593125977
 20
0.8387344290412123
 10
6.020824593125978
 20
0.7867354290412139
 42
0.9999999999999998
 10
6.060825593125978
 20
0.7867354290412139
 10
6.060825593125981
 20
0.7967349290412167
 42
-0.9999999999999703
 10
6.120825593125979
 20
0.7967349290412149
 10
6.120825593125982
 20
0.5557349290412153
 42
-0.9999999999999701
 10
6.060825593125978
 20
0.5557349290412135
 10
6.060825593125978
 20
0.5657344290412128
 42
0.9999999999999998
 10
6.020824593125978
 20
0.5657344290412128
 10
6.020824593125978
 20
0.4887354290412121
 10
6.645824593125978
 20
0.4887354290412121
 10
6.645824593125978
 20
0.5197354290412118
 10
6.586580169138847
 20
0.843237892374168
 42
0.3621043658929644
 10
6.561989137887419
 20
0.8637344290412137
 10
6.378824593125979
 20
0.8637344290412126
 42
-0.9999999999999998
 10
6.318824593125978
 20
0.8637344290412126
 10
6.045824593125978
 20
0.8637344290412126
 42
0.4142135623730951
  0
DIMENSION
  5
617
330
A
100
AcDbEntity
  8
R-ANNO-DIMS
  6
Continuous
100
AcDbDimension
  2
*D4
 10
5.763325593125981
 20
1.113734428794145
 30
0.0
 11
5.892075093125979
 21
1.113734428794145
 31
0.0
 70
    32
 71
     5
 42
0.2574989999999966
  3
SCADMECH
100
AcDbAlignedDimension
 13
6.020824593125977
 23
0.8387344290412119
 33
0.0
 14
5.763325593125981
 24
0.8662349290412144
 34
0.0
100
AcDbRotatedDimension
  0
INSERT
  5
9CF
330
A
100
AcDbEntity
  8
0
  6
Continuous
100
AcDbBlockReference
  2
Pemko_ASSA Logo WEB
 10
-1.493945534212762
 20
-1.416718655763313
 30
0.0
  0
INSERT
  5
B56
330
A
100
AcDbEntity
  8
0
  6
Continuous
100
AcDbBlockReference
  2
T5R1BL - insert
 10
6.09082559312598
 20
0.7887349290412143
 30
0.0
  0
VIEWPORT
  5
318
330
B
100
AcDbEntity
 67
     1
  8
0
  6
Continuous
100
AcDbViewport
 10
5.375000360443835
 20
4.124999881729366
 30
0.0
 40
15.13055796641811
 41
8.992999745766947
 68
     1
 69
     1
 12
5.375000360443835
 22
4.124999881729366
 13
0.0
 23
0.0
 14
0.5
 24
0.5
 15
0.5
 25
0.5
 16
0.0
 26
0.0
 36
1.0
 17
0.0
 27
0.0
 37
0.0
 42
50.0
 43
0.0
 44
0.0
 45
8.992999745766947
 50
0.0
 51
0.0
 72
   100
 90
    32800
  1

281
     0
 71
     1
 74
     0
110
0.0
120
0.0
130
0.0
111
1.0
121
0.0
131
0.0
112
0.0
122
1.0
132
0.0
 79
     0
146
0.0
170
     0
  0
VIEWPORT
  5
31A
330
B
100
AcDbEntity
 67
     1
  8
R-ANNO-DIMS
  6
Continuous
100
AcDbViewport
 10
5.375000121086601
 20
4.124999820716737
 30
0.0
 40
8.60000019373856
 41
6.599999713146781
 68
     2
 69
     2
 12
0.783861032980949
 22
-0.301242848320739
 13
0.0
 23
0.0
 14
1.0
 24
1.0
 15
0.0
 25
0.0
 16
0.0
 26
0.0
 36
1.0
 17
0.0
 27
0.0
 37
0.0
 42
50.0
 43
0.0
 44
0.0
 45
6.599999713146781
 50
0.0
 51
0.0
 72
   100
 90
    32800
  1

281
     0
 71
     1
 74
     0
110
0.0
120
0.0
130
0.0
111
1.0
121
0.0
131
0.0
112
0.0
122
1.0
132
0.0
 79
     0
146
0.0
170
     0
  0
ENDSEC
  0
SECTION
  2
OBJECTS
  0
DICTIONARY
  5
19
330
0
100
AcDbDictionary
281
     1
  3
ACAD_CIP_PREVIOUS_PRODUCT_INFO
350
B2A
  3
ACAD_COLOR
350
B20
  3
ACAD_DETAILVIEWSTYLE
350
AD2
  3
ACAD_GROUP
350
1A
  3
ACAD_IMAGE_VARS
350
A60
  3
ACAD_LAYOUT
350
C6
  3
ACAD_MATERIAL
350
AEF
  3
ACAD_MLEADERSTYLE
350
AF5
  3
ACAD_MLINESTYLE
350
1B
  3
ACAD_PLOTSETTINGS
350
C7
  3
ACAD_PLOTSTYLENAME
350
C4
  3
ACAD_SCALELIST
350
A30
  3
ACAD_SECTIONVIEWSTYLE
350
AD3
  3
ACAD_TABLESTYLE
350
AF3
  3
ACAD_VISUALSTYLE
350
B07
  3
ACDB_RECOMPOSE_DATA
350
BC0
  3
AcDbVariableDictionary
350
D0
  3
AcStStandard
350
36A
  3
AEC_PROPERTY_SET_DEFS
350
B54
  3
APPDATA
350
A5E
  3
ASE_INDEX_DICTIONARY
350
64D
  0
DICTIONARY
  5
9C9
330
2
100
AcDbDictionary
280
     1
281
     1
  3
ACAD_LAYERSTATES
360
9CA
  0
DICTIONARY
  5
B5D
330
14
100
AcDbDictionary
280
     1
281
     1
  3
ADSK_XREC_LAYER_RECONCILED
360
B5E
  0
DICTIONARY
  5
B5F
330
2E
100
AcDbDictionary
280
     1
281
     1
  3
ADSK_XREC_LAYER_RECONCILED
360
B60
  0
DICTIONARY
  5
B61
330
2F
100
AcDbDictionary
280
     1
281
     1
  3
ADSK_XREC_LAYER_RECONCILED
360
B62
  0
DICTIONARY
  5
B63
330
32
100
AcDbDictionary
280
     1
281
     1
  3
ADSK_XREC_LAYER_RECONCILED
360
B64
  0
DICTIONARY
  5
B65
330
33
100
AcDbDictionary
280
     1
281
     1
  3
ADSK_XREC_LAYER_RECONCILED
360
B66
  0
DICTIONARY
  5
B67
330
34
100
AcDbDictionary
280
     1
281
     1
  3
ADSK_XREC_LAYER_RECONCILED
360
B68
  0
DICTIONARY
  5
B69
330
35
100
AcDbDictionary
280
     1
281
     1
  3
ADSK_XREC_LAYER_RECONCILED
360
B6A
  0
DICTIONARY
  5
B6B
330
36
100
AcDbDictionary
280
     1
281
     1
  3
ADSK_XREC_LAYER_RECONCILED
360
B6C
  0
DICTIONARY
  5
B6D
330
37
100
AcDbDictionary
280
     1
281
     1
  3
ADSK_XREC_LAYER_RECONCILED
360
B6E
  0
DICTIONARY
  5
B6F
330
32C
100
AcDbDictionary
280
     1
281
     1
  3
ADSK_XREC_LAYER_RECONCILED
360
B70
  0
DICTIONARY
  5
A62
330
A61
100
AcDbDictionary
280
     1
281
     1
  3
ADSK_XREC_LAYER_RECONCILED
360
A63
  0
DICTIONARY
  5
677
330
676
100
AcDbDictionary
280
     1
281
     1
  3
ACAD_SORTENTS
360
678
  0
XRECORD
  5
B2A
102
{ACAD_REACTORS
330
19
102
}
330
19
100
AcDbXrecord
280
     1
300
ACDLT
300
2016
300
ACDLT_F_S
  0
DICTIONARY
  5
B20
102
{ACAD_REACTORS
330
19
102
}
330
19
100
AcDbDictionary
281
     1
  0
DICTIONARY
  5
AD2
102
{ACAD_REACTORS
330
19
102
}
330
19
100
AcDbDictionary
281
     1
  3
Imperial24
350
B22
  0
DICTIONARY
  5
1A
102
{ACAD_REACTORS
330
19
102
}
330
19
100
AcDbDictionary
281
     1
  0
RASTERVARIABLES
  5
A60
102
{ACAD_REACTORS
330
19
102
}
330
19
100
AcDbRasterVariables
 90
        0
 70
     1
 71
     1
 72
     0
  0
DICTIONARY
  5
C6
102
{ACAD_REACTORS
330
19
102
}
330
19
100
AcDbDictionary
281
     1
  3
Layout1
350
C9
  3
Model
350
C8
  0
DICTIONARY
  5
AEF
102
{ACAD_REACTORS
330
19
102
}
330
19
100
AcDbDictionary
281
     1
  3
ByBlock
350
AF1
  3
ByLayer
350
AF0
  3
Global
350
AF2
  0
DICTIONARY
  5
AF5
102
{ACAD_REACTORS
330
19
102
}
330
19
100
AcDbDictionary
281
     1
  3
Standard
350
AF6
  0
DICTIONARY
  5
1B
102
{ACAD_REACTORS
330
19
102
}
330
19
100
AcDbDictionary
281
     1
  3
STANDARD
350
1C
  0
DICTIONARY
  5
C7
102
{ACAD_REACTORS
330
19
102
}
330
19
100
AcDbDictionary
281
     1
  0
ACDBDICTIONARYWDFLT
  5
C4
102
{ACAD_REACTORS
330
19
102
}
330
19
100
AcDbDictionary
281
     1
  3
Normal
350
C5
100
AcDbDictionaryWithDefault
340
C5
  0
DICTIONARY
  5
A30
102
{ACAD_REACTORS
330
19
102
}
330
19
100
AcDbDictionary
281
     1
  3
A0
350
A31
  3
A1
350
A32
  3
A2
350
A33
  3
A3
350
A34
  3
A4
350
A35
  3
A5
350
A36
  3
A6
350
A37
  3
A7
350
A38
  3
A8
350
A39
  3
A9
350
A3A
  3
B0
350
A3B
  3
B1
350
A3C
  3
B2
350
A3D
  3
B3
350
A3E
  3
B4
350
A3F
  3
B5
350
A40
  3
B6
350
A41
  3
B7
350
A42
  3
B8
350
A43
  3
B9
350
A44
  3
C0
350
A45
  3
C1
350
A46
  3
C2
350
A47
  3
C3
350
A48
  3
C4
350
A49
  3
C5
350
A4A
  3
C6
350
A4B
  3
C7
350
A4C
  3
C8
350
A4D
  3
C9
350
A4E
  3
D0
350
A4F
  3
D1
350
A50
  3
D2
350
A51
  0
DICTIONARY
  5
AD3
102
{ACAD_REACTORS
330
19
102
}
330
19
100
AcDbDictionary
281
     1
  3
Imperial24
350
B21
  0
DICTIONARY
  5
AF3
102
{ACAD_REACTORS
330
19
102
}
330
19
100
AcDbDictionary
281
     1
  3
Standard
350
AF4
  0
DICTIONARY
  5
B07
102
{ACAD_REACTORS
330
19
102
}
330
19
100
AcDbDictionary
281
     1
  3
2dWireframe
350
B0D
  3
Basic
350
B0C
  3
Brighten
350
B13
  3
ColorChange
350
B17
  3
Conceptual
350
B10
  3
Dim
350
B12
  3
EdgeColorOff
350
B1F
  3
Facepattern
350
B16
  3
Flat
350
B08
  3
FlatWithEdges
350
B09
  3
Gouraud
350
B0A
  3
GouraudWithEdges
350
B0B
  3
Hidden
350
B0F
  3
JitterOff
350
B1D
  3
Linepattern
350
B15
  3
OverhangOff
350
B1E
  3
Realistic
350
B11
  3
Shaded
350
B1C
  3
Shaded with edges
350
B1B
  3
Shades of Gray
350
B18
  3
Sketchy
350
B19
  3
Thicken
350
B14
  3
Wireframe
350
B0E
  3
X-Ray
350
B1A
  0
XRECORD
  5
BC0
102
{ACAD_REACTORS
330
19
102
}
330
19
100
AcDbXrecord
280
     1
 90
        1
330
AF4
  0
DICTIONARY
  5
D0
102
{ACAD_REACTORS
330
19
102
}
330
19
100
AcDbDictionary
281
     1
  3
CANNOSCALE
350
AF8
  3
CMLEADERSTYLE
350
AFF
  3
CTABLESTYLE
350
AFE
  3
CVIEWDETAILSTYLE
350
BBD
  3
CVIEWSECTIONSTYLE
350
BBE
  3
DIMASSOC
350
D1
  3
INDEXCTL
350
9FA
  3
MSLTSCALE
350
B00
  3
SORTENTS
350
9F9
  0
DICTIONARY
  5
36A
102
{ACAD_REACTORS
330
19
102
}
330
19
100
AcDbDictionary
281
     1
  3
0
350
391
  0
DICTIONARY
  5
B54
102
{ACAD_REACTORS
330
19
102
}
330
19
100
AcDbDictionary
281
     1
  0
DICTIONARY
  5
A5E
102
{ACAD_REACTORS
330
19
102
}
330
19
100
AcDbDictionary
281
     1
  0
DICTIONARY
  5
64D
102
{ACAD_REACTORS
330
19
102
}
330
19
100
AcDbDictionary
281
     1
  3
ASEBlockHierarchyIndexRecord
350
64E
1001
DCO15
1040
1536569861.243
  0
DICTIONARY
  5
9CA
102
{ACAD_REACTORS
330
9C9
102
}
330
9C9
100
AcDbDictionary
281
     1
  0
XRECORD
  5
B5E
102
{ACAD_REACTORS
330
B5D
102
}
330
B5D
100
AcDbXrecord
280
     1
290
     1
  0
XRECORD
  5
B60
102
{ACAD_REACTORS
330
B5F
102
}
330
B5F
100
AcDbXrecord
280
     1
290
     1
  0
XRECORD
  5
B62
102
{ACAD_REACTORS
330
B61
102
}
330
B61
100
AcDbXrecord
280
     1
290
     1
  0
XRECORD
  5
B64
102
{ACAD_REACTORS
330
B63
102
}
330
B63
100
AcDbXrecord
280
     1
290
     1
  0
XRECORD
  5
B66
102
{ACAD_REACTORS
330
B65
102
}
330
B65
100
AcDbXrecord
280
     1
290
     1
  0
XRECORD
  5
B68
102
{ACAD_REACTORS
330
B67
102
}
330
B67
100
AcDbXrecord
280
     1
290
     1
  0
XRECORD
  5
B6A
102
{ACAD_REACTORS
330
B69
102
}
330
B69
100
AcDbXrecord
280
     1
290
     1
  0
XRECORD
  5
B6C
102
{ACAD_REACTORS
330
B6B
102
}
330
B6B
100
AcDbXrecord
280
     1
290
     1
  0
XRECORD
  5
B6E
102
{ACAD_REACTORS
330
B6D
102
}
330
B6D
100
AcDbXrecord
280
     1
290
     1
  0
XRECORD
  5
B70
102
{ACAD_REACTORS
330
B6F
102
}
330
B6F
100
AcDbXrecord
280
     1
290
     1
  0
XRECORD
  5
A63
102
{ACAD_REACTORS
330
A62
102
}
330
A62
100
AcDbXrecord
280
     1
290
     1
  0
SORTENTSTABLE
  5
678
102
{ACAD_REACTORS
330
677
102
}
330
677
100
AcDbSortentsTable
330
676
  0
ACDBDETAILVIEWSTYLE
  5
B22
102
{ACAD_XDICTIONARY
360
BFA
102
}
102
{ACAD_REACTORS
330
AD2
102
}
330
AD2
100
AcDbModelDocViewStyle
 70
     0
  3
Imperial24
290
     0
100
AcDbDetailViewStyle
 70
     0
 71
     0
 90
        3
 71
     1
340
17
 62
   256
 40
0.24
340
0
 62
   256
 40
0.24
300

 40
0.36
280
     3
 71
     2
340
13
 90
       25
 62
   256
 71
     3
340
17
 62
   256
 40
0.24
 90
        1
 40
0.75
 90
        1
300
%<\AcVar ViewType \f "%tc1">% %<\AcVar ViewDetailId>%\PSCALE %<\AcVar ViewScale \f "%sn">%
 71
     4
340
13
 90
       25
 62
   256
340
13
 90
       25
 62
   256
280
     0
  0
LAYOUT
  5
C9
102
{ACAD_REACTORS
330
C6
102
}
330
C6
100
AcDbPlotSettings
  1

  2
HP LaserJet 8150 PS
  4
Letter
  6

 40
3.174999952316284
 41
3.174999952316284
 42
3.175003051757812
 43
3.17498779296875
 44
215.8999938964844
 45
279.3999938964844
 46
0.0
 47
0.0
 48
0.0
 49
0.0
140
0.0
141
0.0
142
1.0
143
1.0
 70
   688
 72
     0
 73
     1
 74
     5
  7
monochrome.ctb
 75
    16
147
1.0
 76
     0
 77
     2
 78
   300
148
0.0
149
0.0
100
AcDbLayout
  1
Layout1
 70
     0
 71
     1
 10
-0.1249995194082185
 20
-0.1249999981226883
 11
10.87500024029589
 21
8.37499976158142
 12
0.0
 22
0.0
 32
0.0
 14
1.07500002421732
 24
0.8249999641433474
 34
0.0
 15
9.675000217955881
 25
7.424999677290128
 35
0.0
146
0.0
 13
0.0
 23
0.0
 33
0.0
 16
1.0
 26
0.0
 36
0.0
 17
0.0
 27
1.0
 37
0.0
 76
     0
330
B
331
318
  0
LAYOUT
  5
C8
102
{ACAD_REACTORS
330
C6
102
}
330
C6
100
AcDbPlotSettings
  1

  2
Adobe PDF
  4
Letter
  6

 40
3.174999952316284
 41
3.174999952316284
 42
3.175003051757812
 43
3.17498779296875
 44
215.8999938964844
 45
279.3999938964844
 46
60.27664966799469
 47
58.54908225778174
 48
-2.016164028763663
 49
-2.069071431812828
140
4.12367225610389
141
1.434735322376971
142
1.0
143
1.0
 70
 11940
 72
     0
 73
     1
 74
     4
  7
monochrome.ctb
 75
     0
147
1.750861056127508
 76
     0
 77
     2
 78
   300
148
51.21056633059705
149
52.55441436804583
100
AcDbLayout
  1
Model
 70
     1
 71
     0
 10
0.0
 20
0.0
 11
12.0
 21
9.0
 12
0.0
 22
0.0
 32
0.0
 14
4.666096635017993
 24
-0.8308353365520613
 34
0.0
 15
9.994386912290666
 25
1.259567762127478
 35
0.0
146
0.0
 13
0.0
 23
0.0
 33
0.0
 16
1.0
 26
0.0
 36
0.0
 17
0.0
 27
1.0
 37
0.0
 76
     0
330
A
331
659
1001
ACAD_PSEXT
1000
Adobe PDF
1000
Adobe PDF Converter
1000
My Documents\*.pdf
1000
Creates Adobe PDF
1070
     0
  0
MATERIAL
  5
AF1
102
{ACAD_XDICTIONARY
360
BC3
102
}
102
{ACAD_REACTORS
330
AEF
102
}
330
AEF
100
AcDbMaterial
  1
ByBlock
 73
     1
 78
     1
172
     1
176
     1
270
     1
274
     1
  0
MATERIAL
  5
AF0
102
{ACAD_XDICTIONARY
360
BC1
102
}
102
{ACAD_REACTORS
330
AEF
102
}
330
AEF
100
AcDbMaterial
  1
ByLayer
 73
     1
 78
     1
172
     1
176
     1
270
     1
274
     1
  0
MATERIAL
  5
AF2
102
{ACAD_XDICTIONARY
360
BC5
102
}
102
{ACAD_REACTORS
330
AEF
102
}
330
AEF
100
AcDbMaterial
  1
Global
 73
     1
 78
     1
172
     1
176
     1
270
     1
274
     1
  0
MLEADERSTYLE
  5
AF6
102
{ACAD_REACTORS
330
AF5
102
}
330
AF5
100
AcDbMLeaderStyle
170
     2
171
     1
172
     0
 90
        2
 40
0.0
 41
0.0
173
     1
 91
-1056964608
340
11
 92
       -2
290
     1
 42
0.09
291
     1
 43
0.36
  3
Standard
 44
0.18
300

342
17
174
     1
178
     1
175
     1
176
     0
 93
-1056964608
 45
0.18
292
     0
297
     0
 46
0.18
 94
-1056964608
 47
1.0
 49
1.0
140
1.0
293
     1
141
0.0
294
     1
177
     0
142
1.0
295
     0
296
     0
143
0.125
1001
ACAD_MLEADERVER
1070
     2
  0
MLINESTYLE
  5
1C
102
{ACAD_REACTORS
330
1B
102
}
330
1B
100
AcDbMlineStyle
  2
STANDARD
 70
     0
  3

 62
     0
 51
90.0
 52
90.0
 71
     2
 49
0.5
 62
   256
  6
BYLAYER
 49
-0.5
 62
   256
  6
BYLAYER
  0
ACDBPLACEHOLDER
  5
C5
102
{ACAD_REACTORS
330
C4
102
}
330
C4
  0
SCALE
  5
A31
102
{ACAD_REACTORS
330
A30
102
}
330
A30
100
AcDbScale
 70
     0
300
1:1
140
1.0
141
1.0
290
     1
  0
SCALE
  5
A32
102
{ACAD_REACTORS
330
A30
102
}
330
A30
100
AcDbScale
 70
     0
300
1:2
140
1.0
141
2.0
290
     0
  0
SCALE
  5
A33
102
{ACAD_REACTORS
330
A30
102
}
330
A30
100
AcDbScale
 70
     0
300
1:4
140
1.0
141
4.0
290
     0
  0
SCALE
  5
A34
102
{ACAD_REACTORS
330
A30
102
}
330
A30
100
AcDbScale
 70
     0
300
1:5
140
1.0
141
5.0
290
     0
  0
SCALE
  5
A35
102
{ACAD_REACTORS
330
A30
102
}
330
A30
100
AcDbScale
 70
     0
300
1:8
140
1.0
141
8.0
290
     0
  0
SCALE
  5
A36
102
{ACAD_REACTORS
330
A30
102
}
330
A30
100
AcDbScale
 70
     0
300
1:10
140
1.0
141
10.0
290
     0
  0
SCALE
  5
A37
102
{ACAD_REACTORS
330
A30
102
}
330
A30
100
AcDbScale
 70
     0
300
1:16
140
1.0
141
16.0
290
     0
  0
SCALE
  5
A38
102
{ACAD_REACTORS
330
A30
102
}
330
A30
100
AcDbScale
 70
     0
300
1:20
140
1.0
141
20.0
290
     0
  0
SCALE
  5
A39
102
{ACAD_REACTORS
330
A30
102
}
330
A30
100
AcDbScale
 70
     0
300
1:30
140
1.0
141
30.0
290
     0
  0
SCALE
  5
A3A
102
{ACAD_REACTORS
330
A30
102
}
330
A30
100
AcDbScale
 70
     0
300
1:40
140
1.0
141
40.0
290
     0
  0
SCALE
  5
A3B
102
{ACAD_REACTORS
330
A30
102
}
330
A30
100
AcDbScale
 70
     0
300
1:50
140
1.0
141
50.0
290
     0
  0
SCALE
  5
A3C
102
{ACAD_REACTORS
330
A30
102
}
330
A30
100
AcDbScale
 70
     0
300
1:100
140
1.0
141
100.0
290
     0
  0
SCALE
  5
A3D
102
{ACAD_REACTORS
330
A30
102
}
330
A30
100
AcDbScale
 70
     0
300
2:1
140
2.0
141
1.0
290
     0
  0
SCALE
  5
A3E
102
{ACAD_REACTORS
330
A30
102
}
330
A30
100
AcDbScale
 70
     0
300
4:1
140
4.0
141
1.0
290
     0
  0
SCALE
  5
A3F
102
{ACAD_REACTORS
330
A30
102
}
330
A30
100
AcDbScale
 70
     0
300
8:1
140
8.0
141
1.0
290
     0
  0
SCALE
  5
A40
102
{ACAD_REACTORS
330
A30
102
}
330
A30
100
AcDbScale
 70
     0
300
10:1
140
10.0
141
1.0
290
     0
  0
SCALE
  5
A41
102
{ACAD_REACTORS
330
A30
102
}
330
A30
100
AcDbScale
 70
     0
300
100:1
140
100.0
141
1.0
290
     0
  0
SCALE
  5
A42
102
{ACAD_REACTORS
330
A30
102
}
330
A30
100
AcDbScale
 70
     0
300
1/128" = 1'-0"
140
0.0078125
141
12.0
290
     0
  0
SCALE
  5
A43
102
{ACAD_REACTORS
330
A30
102
}
330
A30
100
AcDbScale
 70
     0
300
1/64" = 1'-0"
140
0.015625
141
12.0
290
     0
  0
SCALE
  5
A44
102
{ACAD_REACTORS
330
A30
102
}
330
A30
100
AcDbScale
 70
     0
300
1/32" = 1'-0"
140
0.03125
141
12.0
290
     0
  0
SCALE
  5
A45
102
{ACAD_REACTORS
330
A30
102
}
330
A30
100
AcDbScale
 70
     0
300
1/16" = 1'-0"
140
0.0625
141
12.0
290
     0
  0
SCALE
  5
A46
102
{ACAD_REACTORS
330
A30
102
}
330
A30
100
AcDbScale
 70
     0
300
3/32" = 1'-0"
140
0.09375
141
12.0
290
     0
  0
SCALE
  5
A47
102
{ACAD_REACTORS
330
A30
102
}
330
A30
100
AcDbScale
 70
     0
300
1/8" = 1'-0"
140
0.125
141
12.0
290
     0
  0
SCALE
  5
A48
102
{ACAD_REACTORS
330
A30
102
}
330
A30
100
AcDbScale
 70
     0
300
3/16" = 1'-0"
140
0.1875
141
12.0
290
     0
  0
SCALE
  5
A49
102
{ACAD_REACTORS
330
A30
102
}
330
A30
100
AcDbScale
 70
     0
300
1/4" = 1'-0"
140
0.25
141
12.0
290
     0
  0
SCALE
  5
A4A
102
{ACAD_REACTORS
330
A30
102
}
330
A30
100
AcDbScale
 70
     0
300
3/8" = 1'-0"
140
0.375
141
12.0
290
     0
  0
SCALE
  5
A4B
102
{ACAD_REACTORS
330
A30
102
}
330
A30
100
AcDbScale
 70
     0
300
1/2" = 1'-0"
140
0.5
141
12.0
290
     0
  0
SCALE
  5
A4C
102
{ACAD_REACTORS
330
A30
102
}
330
A30
100
AcDbScale
 70
     0
300
3/4" = 1'-0"
140
0.75
141
12.0
290
     0
  0
SCALE
  5
A4D
102
{ACAD_REACTORS
330
A30
102
}
330
A30
100
AcDbScale
 70
     0
300
1" = 1'-0"
140
1.0
141
12.0
290
     0
  0
SCALE
  5
A4E
102
{ACAD_REACTORS
330
A30
102
}
330
A30
100
AcDbScale
 70
     0
300
1-1/2" = 1'-0"
140
1.5
141
12.0
290
     0
  0
SCALE
  5
A4F
102
{ACAD_REACTORS
330
A30
102
}
330
A30
100
AcDbScale
 70
     0
300
3" = 1'-0"
140
3.0
141
12.0
290
     0
  0
SCALE
  5
A50
102
{ACAD_REACTORS
330
A30
102
}
330
A30
100
AcDbScale
 70
     0
300
6" = 1'-0"
140
6.0
141
12.0
290
     0
  0
SCALE
  5
A51
102
{ACAD_REACTORS
330
A30
102
}
330
A30
100
AcDbScale
 70
     0
300
1'-0" = 1'-0"
140
12.0
141
12.0
290
     0
  0
ACDBSECTIONVIEWSTYLE
  5
B21
102
{ACAD_XDICTIONARY
360
BF8
102
}
102
{ACAD_REACTORS
330
AD3
102
}
330
AD3
100
AcDbModelDocViewStyle
 70
     0
  3
Imperial24
290
     0
100
AcDbSectionViewStyle
 70
     0
 71
     0
 90
       78
 71
     1
340
17
 62
   256
 40
0.24
340
0
340
0
 62
   256
 40
0.24
300
I, O, Q, S, X, Z
 40
0.48
 90
        3
 40
0.18
 90
        1
 71
     2
340
13
 90
       25
 62
   256
340
13
 90
       50
 62
   256
 40
0.24
 40
0.0
 40
0.24
 71
     3
340
17
 62
   256
 40
0.24
 90
        1
 40
0.75
 90
        1
300
%<\AcVar ViewType \f "%tc1">% %<\AcVar ViewSectionStartId>%-%<\AcVar ViewSectionEndId>%\PSCALE %<\AcVar ViewScale \f "%sn">%
 71
     4
 62
   256
 62
   257
300
ANSI31
 40
1.0
 90
        0
290
     0
290
     0
 90
        6
 40
0.0
 40
1.570796326794896
 40
0.2617993877991494
 40
1.308996938995747
 40
-0.2617993877991494
 40
1.832595714594046
  0
TABLESTYLE
  5
AF4
102
{ACAD_XDICTIONARY
360
B01
102
}
102
{ACAD_REACTORS
330
AF3
102
}
330
AF3
100
AcDbTableStyle
  3
Standard
 70
     0
 71
     0
 40
0.06
 41
0.06
280
     0
281
     0
  7
STANDARD
140
0.18
170
     2
 62
     0
 63
     7
283
     0
274
    -2
284
     1
 64
     0
275
    -2
285
     1
 65
     0
276
    -2
286
     1
 66
     0
277
    -2
287
     1
 67
     0
278
    -2
288
     1
 68
     0
279
    -2
289
     1
 69
     0
  7
STANDARD
140
0.25
170
     5
 62
     0
 63
     7
283
     0
274
    -2
284
     1
 64
     0
275
    -2
285
     1
 65
     0
276
    -2
286
     1
 66
     0
277
    -2
287
     1
 67
     0
278
    -2
288
     1
 68
     0
279
    -2
289
     1
 69
     0
  7
STANDARD
140
0.18
170
     5
 62
     0
 63
     7
283
     0
274
    -2
284
     1
 64
     0
275
    -2
285
     1
 65
     0
276
    -2
286
     1
 66
     0
277
    -2
287
     1
 67
     0
278
    -2
288
     1
 68
     0
279
    -2
289
     1
 69
     0
  0
VISUALSTYLE
  5
B0D
102
{ACAD_XDICTIONARY
360
BD2
102
}
102
{ACAD_REACTORS
330
B07
102
}
330
B07
100
AcDbVisualStyle
  2
2dWireframe
 70
     4
 71
     0
 72
     2
 73
     0
 90
        0
 40
-0.6
 41
-30.0
 62
     5
 63
     7
421
 16777215
 74
     1
 91
        4
 64
     7
 65
   257
 75
     1
175
     1
 42
1.0
 92
        0
 66
   257
 43
1.0
 76
     1
 77
     6
 78
     2
 67
     7
 79
     5
170
     0
171
     0
290
     0
174
     0
 93
        1
 44
0.0
173
     0
291
     0
 45
0.0
1001
ACAD
1000
AcDbSavedByObjectVersion
1070
     0
  0
VISUALSTYLE
  5
B0C
102
{ACAD_XDICTIONARY
360
BD0
102
}
102
{ACAD_REACTORS
330
B07
102
}
330
B07
100
AcDbVisualStyle
  2
Basic
 70
     7
 71
     1
 72
     0
 73
     1
 90
        0
 40
-0.6
 41
-30.0
 62
     5
 63
     7
421
 16777215
 74
     0
 91
        4
 64
     7
 65
   257
 75
     1
175
     1
 42
1.0
 92
        8
 66
     7
 43
1.0
 76
     1
 77
     6
 78
     2
 67
     7
 79
     5
170
     0
171
     0
290
     0
174
     0
 93
        1
 44
0.0
173
     0
291
     1
 45
0.0
1001
ACAD
1000
AcDbSavedByObjectVersion
1070
     0
  0
VISUALSTYLE
  5
B13
102
{ACAD_XDICTIONARY
360
BDE
102
}
102
{ACAD_REACTORS
330
B07
102
}
330
B07
100
AcDbVisualStyle
  2
Brighten
 70
    12
 71
     2
 72
     2
 73
     0
 90
        0
 40
-0.6
 41
-30.0
 62
     5
 63
     7
421
 16777215
 74
     1
 91
        4
 64
     7
 65
   257
 75
     1
175
     1
 42
1.0
 92
        8
 66
     7
 43
1.0
 76
     1
 77
     6
 78
     2
 67
     7
 79
     5
170
     0
171
     0
290
     0
174
     0
 93
        1
 44
50.0
173
     0
291
     1
 45
0.0
1001
ACAD
1000
AcDbSavedByObjectVersion
1070
     0
  0
VISUALSTYLE
  5
B17
102
{ACAD_XDICTIONARY
360
BE6
102
}
102
{ACAD_REACTORS
330
B07
102
}
330
B07
100
AcDbVisualStyle
  2
ColorChange
 70
    16
 71
     2
 72
     2
 73
     3
 90
        0
 40
-0.6
 41
-30.0
 62
     5
 63
     8
421
  8421504
 74
     1
 91
        4
 64
     7
 65
   257
 75
     1
175
     1
 42
1.0
 92
        8
 66
     8
424
  8421504
 43
1.0
 76
     1
 77
     6
 78
     2
 67
     7
 79
     5
170
     0
171
     0
290
     0
174
     0
 93
        1
 44
0.0
173
     0
291
     1
 45
0.0
1001
ACAD
1000
AcDbSavedByObjectVersion
1070
     0
  0
VISUALSTYLE
  5
B10
102
{ACAD_XDICTIONARY
360
BD8
102
}
102
{ACAD_REACTORS
330
B07
102
}
330
B07
100
AcDbVisualStyle
  2
Conceptual
 70
     9
 71
     3
 72
     2
 73
     0
 90
        0
 40
-0.6
 41
-30.0
 62
     5
 63
     7
421
 16777215
 74
     2
 91
        2
 64
     7
 65
   257
 75
     1
175
     1
 42
179.0
 92
        8
 66
     7
 43
1.0
 76
     1
 77
     6
 78
     2
 67
     7
 79
     3
170
     0
171
     0
290
     0
174
     0
 93
        1
 44
0.0
173
     0
291
     0
 45
0.0
1001
ACAD
1000
AcDbSavedByObjectVersion
1070
     0
  0
VISUALSTYLE
  5
B12
102
{ACAD_XDICTIONARY
360
BDC
102
}
102
{ACAD_REACTORS
330
B07
102
}
330
B07
100
AcDbVisualStyle
  2
Dim
 70
    11
 71
     2
 72
     2
 73
     0
 90
        0
 40
-0.6
 41
-30.0
 62
     5
 63
     7
421
 16777215
 74
     1
 91
        4
 64
     7
 65
   257
 75
     1
175
     1
 42
1.0
 92
        8
 66
     7
 43
1.0
 76
     1
 77
     6
 78
     2
 67
     7
 79
     5
170
     0
171
     0
290
     0
174
     0
 93
        1
 44
-50.0
173
     0
291
     1
 45
0.0
1001
ACAD
1000
AcDbSavedByObjectVersion
1070
     0
  0
VISUALSTYLE
  5
B1F
102
{ACAD_XDICTIONARY
360
BF6
102
}
102
{ACAD_REACTORS
330
B07
102
}
330
B07
100
AcDbVisualStyle
  2
EdgeColorOff
 70
    22
 71
     2
 72
     2
 73
     0
 90
        0
 40
-0.6
 41
-30.0
 62
     5
 63
     7
421
 16777215
 74
     1
 91
        4
 64
     7
 65
   257
 75
     1
175
     1
 42
1.0
 92
        8
 66
     7
 43
1.0
 76
     1
 77
     6
 78
     2
 67
     7
 79
     5
170
     0
171
     0
290
     0
174
     0
 93
        1
 44
0.0
173
     0
291
     1
 45
0.0
1001
ACAD
1000
AcDbSavedByObjectVersion
1070
     0
  0
VISUALSTYLE
  5
B16
102
{ACAD_XDICTIONARY
360
BE4
102
}
102
{ACAD_REACTORS
330
B07
102
}
330
B07
100
AcDbVisualStyle
  2
Facepattern
 70
    15
 71
     2
 72
     2
 73
     0
 90
        0
 40
-0.6
 41
-30.0
 62
     5
 63
     7
421
 16777215
 74
     1
 91
        4
 64
     7
 65
   257
 75
     1
175
     1
 42
1.0
 92
        8
 66
     7
 43
1.0
 76
     1
 77
     6
 78
     2
 67
     7
 79
     5
170
     0
171
     0
290
     0
174
     0
 93
        1
 44
0.0
173
     0
291
     1
 45
0.0
1001
ACAD
1000
AcDbSavedByObjectVersion
1070
     0
  0
VISUALSTYLE
  5
B08
102
{ACAD_XDICTIONARY
360
BC8
102
}
102
{ACAD_REACTORS
330
B07
102
}
330
B07
100
AcDbVisualStyle
  2
Flat
 70
     0
 71
     2
 72
     1
 73
     1
 90
        2
 40
-0.6
 41
30.0
 62
     5
 63
     7
421
 16777215
 74
     0
 91
        0
 64
     7
 65
   257
 75
     1
175
     1
 42
1.0
 92
        8
 66
     7
 43
1.0
 76
     1
 77
     6
 78
     2
 67
     7
 79
     5
170
     0
171
     0
290
     0
174
     0
 93
       13
 44
0.0
173
     0
291
     1
 45
0.0
1001
ACAD
1000
AcDbSavedByObjectVersion
1070
     0
  0
VISUALSTYLE
  5
B09
102
{ACAD_XDICTIONARY
360
BCA
102
}
102
{ACAD_REACTORS
330
B07
102
}
330
B07
100
AcDbVisualStyle
  2
FlatWithEdges
 70
     1
 71
     2
 72
     1
 73
     1
 90
        2
 40
-0.6
 41
30.0
 62
     5
 63
     7
421
 16777215
 74
     1
 91
        0
 64
     7
 65
   257
 75
     1
175
     1
 42
1.0
 92
        0
 66
   257
 43
1.0
 76
     1
 77
     6
 78
     2
 67
     7
 79
     5
170
     0
171
     0
290
     0
174
     0
 93
       13
 44
0.0
173
     0
291
     1
 45
0.0
1001
ACAD
1000
AcDbSavedByObjectVersion
1070
     0
  0
VISUALSTYLE
  5
B0A
102
{ACAD_XDICTIONARY
360
BCC
102
}
102
{ACAD_REACTORS
330
B07
102
}
330
B07
100
AcDbVisualStyle
  2
Gouraud
 70
     2
 71
     2
 72
     2
 73
     1
 90
        2
 40
-0.6
 41
30.0
 62
     5
 63
     7
421
 16777215
 74
     0
 91
        0
 64
     7
 65
   257
 75
     1
175
     1
 42
1.0
 92
        0
 66
     7
 43
1.0
 76
     1
 77
     6
 78
     2
 67
     7
 79
     5
170
     0
171
     0
290
     0
174
     0
 93
       13
 44
0.0
173
     0
291
     1
 45
0.0
1001
ACAD
1000
AcDbSavedByObjectVersion
1070
     0
  0
VISUALSTYLE
  5
B0B
102
{ACAD_XDICTIONARY
360
BCE
102
}
102
{ACAD_REACTORS
330
B07
102
}
330
B07
100
AcDbVisualStyle
  2
GouraudWithEdges
 70
     3
 71
     2
 72
     2
 73
     1
 90
        2
 40
-0.6
 41
30.0
 62
     5
 63
     7
421
 16777215
 74
     1
 91
        0
 64
     7
 65
   257
 75
     1
175
     1
 42
1.0
 92
        0
 66
   257
 43
1.0
 76
     1
 77
     6
 78
     2
 67
     7
 79
     5
170
     0
171
     0
290
     0
174
     0
 93
       13
 44
0.0
173
     0
291
     1
 45
0.0
1001
ACAD
1000
AcDbSavedByObjectVersion
1070
     0
  0
VISUALSTYLE
  5
B0F
102
{ACAD_XDICTIONARY
360
BD6
102
}
102
{ACAD_REACTORS
330
B07
102
}
330
B07
100
AcDbVisualStyle
  2
Hidden
 70
     6
 71
     1
 72
     2
 73
     2
 90
        0
 40
-0.6
 41
-30.0
 62
     5
 63
     7
421
 16777215
 74
     2
 91
        2
 64
     7
 65
   257
 75
     2
175
     1
 42
40.0
 92
        0
 66
   257
 43
1.0
 76
     1
 77
     6
 78
     2
 67
     7
 79
     3
170
     0
171
     0
290
     0
174
     0
 93
        1
 44
0.0
173
     0
291
     0
 45
0.0
1001
ACAD
1000
AcDbSavedByObjectVersion
1070
     0
  0
VISUALSTYLE
  5
B1D
102
{ACAD_XDICTIONARY
360
BF2
102
}
102
{ACAD_REACTORS
330
B07
102
}
330
B07
100
AcDbVisualStyle
  2
JitterOff
 70
    20
 71
     2
 72
     2
 73
     0
 90
        0
 40
-0.6
 41
-30.0
 62
     5
 63
     7
421
 16777215
 74
     1
 91
        4
 64
     7
 65
   257
 75
     1
175
     1
 42
1.0
 92
       10
 66
     7
 43
1.0
 76
     1
 77
     6
 78
     2
 67
     7
 79
     5
170
     0
171
     0
290
     0
174
     0
 93
        1
 44
0.0
173
     0
291
     1
 45
0.0
1001
ACAD
1000
AcDbSavedByObjectVersion
1070
     0
  0
VISUALSTYLE
  5
B15
102
{ACAD_XDICTIONARY
360
BE2
102
}
102
{ACAD_REACTORS
330
B07
102
}
330
B07
100
AcDbVisualStyle
  2
Linepattern
 70
    14
 71
     2
 72
     2
 73
     0
 90
        0
 40
-0.6
 41
-30.0
 62
     5
 63
     7
421
 16777215
 74
     1
 91
        4
 64
     7
 65
   257
 75
     7
175
     7
 42
1.0
 92
        8
 66
     7
 43
1.0
 76
     1
 77
     6
 78
     2
 67
     7
 79
     5
170
     0
171
     0
290
     0
174
     0
 93
        1
 44
0.0
173
     0
291
     1
 45
0.0
1001
ACAD
1000
AcDbSavedByObjectVersion
1070
     0
  0
VISUALSTYLE
  5
B1E
102
{ACAD_XDICTIONARY
360
BF4
102
}
102
{ACAD_REACTORS
330
B07
102
}
330
B07
100
AcDbVisualStyle
  2
OverhangOff
 70
    21
 71
     2
 72
     2
 73
     0
 90
        0
 40
-0.6
 41
-30.0
 62
     5
 63
     7
421
 16777215
 74
     1
 91
        4
 64
     7
 65
   257
 75
     1
175
     1
 42
1.0
 92
        9
 66
     7
 43
1.0
 76
     1
 77
     6
 78
     2
 67
     7
 79
     5
170
     0
171
     0
290
     0
174
     0
 93
        1
 44
0.0
173
     0
291
     1
 45
0.0
1001
ACAD
1000
AcDbSavedByObjectVersion
1070
     0
  0
VISUALSTYLE
  5
B11
102
{ACAD_XDICTIONARY
360
BDA
102
}
102
{ACAD_REACTORS
330
B07
102
}
330
B07
100
AcDbVisualStyle
  2
Realistic
 70
     8
 71
     2
 72
     3
 73
     0
 90
        2
 40
-0.6
 41
30.0
 62
     5
 63
     7
421
 16777215
 74
     0
 91
        0
 64
     7
 65
   257
 75
     1
175
     1
 42
1.0
 92
        8
 66
   257
 43
1.0
 76
     1
 77
     6
 78
     2
 67
     7
 79
     3
170
     0
171
     0
290
     0
174
     0
 93
       13
 44
0.0
173
     0
291
     0
 45
0.0
1001
ACAD
1000
AcDbSavedByObjectVersion
1070
     0
  0
VISUALSTYLE
  5
B1C
102
{ACAD_XDICTIONARY
360
BF0
102
}
102
{ACAD_REACTORS
330
B07
102
}
330
B07
100
AcDbVisualStyle
  2
Shaded
 70
    27
 71
     2
 72
     2
 73
     1
 90
        2
 40
-0.6
 41
30.0
 62
     5
 63
     7
421
 16777215
 74
     0
 91
        4
 64
     7
 65
   257
 75
     1
175
     1
 42
1.0
 92
        8
 66
   257
 43
1.0
 76
     1
 77
     6
 78
     2
 67
     8
425
  7895160
 79
     3
170
     0
171
     0
290
     0
174
     0
 93
        5
 44
0.0
173
     0
291
     0
 45
0.0
1001
ACAD
1000
AcDbSavedByObjectVersion
1070
     0
  0
VISUALSTYLE
  5
B1B
102
{ACAD_XDICTIONARY
360
BEE
102
}
102
{ACAD_REACTORS
330
B07
102
}
330
B07
100
AcDbVisualStyle
  2
Shaded with edges
 70
    26
 71
     2
 72
     2
 73
     1
 90
        2
 40
-0.6
 41
30.0
 62
     5
 63
     7
421
 16777215
 74
     1
 91
       10
 64
     7
 65
   257
 75
     2
175
     1
 42
1.0
 92
        8
 66
   257
 43
1.0
 76
     1
 77
     6
 78
     2
 67
     7
 79
     3
170
     0
171
     0
290
     0
174
     0
 93
        5
 44
0.0
173
     0
291
     0
 45
0.0
1001
ACAD
1000
AcDbSavedByObjectVersion
1070
     0
  0
VISUALSTYLE
  5
B18
102
{ACAD_XDICTIONARY
360
BE8
102
}
102
{ACAD_REACTORS
330
B07
102
}
330
B07
100
AcDbVisualStyle
  2
Shades of Gray
 70
    23
 71
     2
 72
     2
 73
     3
 90
        0
 40
-0.6
 41
-30.0
 62
     5
 63
     7
421
 16777215
 74
     2
 91
        2
 64
     7
 65
     7
 75
     1
175
     1
 42
40.0
 92
        8
 66
     7
 43
1.0
 76
     1
 77
     6
 78
     2
 67
     7
 79
     3
170
     0
171
     0
290
     0
174
     0
 93
        1
 44
0.0
173
     0
291
     0
 45
0.0
1001
ACAD
1000
AcDbSavedByObjectVersion
1070
     0
  0
VISUALSTYLE
  5
B19
102
{ACAD_XDICTIONARY
360
BEA
102
}
102
{ACAD_REACTORS
330
B07
102
}
330
B07
100
AcDbVisualStyle
  2
Sketchy
 70
    24
 71
     1
 72
     2
 73
     2
 90
        0
 40
-0.6
 41
-30.0
 62
     5
 63
     7
421
 16777215
 74
     2
 91
        2
 64
     7
 65
     7
 75
     1
175
     1
 42
40.0
 92
       11
 66
     7
 43
1.0
 76
     1
 77
     6
 78
     2
 67
     7
 79
     6
170
     0
171
     0
290
     0
174
     0
 93
        1
 44
0.0
173
     0
291
     0
 45
0.0
1001
ACAD
1000
AcDbSavedByObjectVersion
1070
     0
  0
VISUALSTYLE
  5
B14
102
{ACAD_XDICTIONARY
360
BE0
102
}
102
{ACAD_REACTORS
330
B07
102
}
330
B07
100
AcDbVisualStyle
  2
Thicken
 70
    13
 71
     2
 72
     2
 73
     0
 90
        0
 40
-0.6
 41
-30.0
 62
     5
 63
     7
421
 16777215
 74
     1
 91
        4
 64
     7
 65
   257
 75
     1
175
     1
 42
1.0
 92
       12
 66
     7
 43
1.0
 76
     1
 77
     6
 78
     2
 67
     7
 79
     5
170
     0
171
     0
290
     0
174
     0
 93
        1
 44
0.0
173
     0
291
     1
 45
0.0
1001
ACAD
1000
AcDbSavedByObjectVersion
1070
     0
  0
VISUALSTYLE
  5
B0E
102
{ACAD_XDICTIONARY
360
BD4
102
}
102
{ACAD_REACTORS
330
B07
102
}
330
B07
100
AcDbVisualStyle
  2
Wireframe
 70
     5
 71
     0
 72
     2
 73
     0
 90
        0
 40
-0.6
 41
-30.0
 62
     5
 63
     7
421
 16777215
 74
     1
 91
        4
 64
     7
 65
   257
 75
     1
175
     1
 42
1.0
 92
        0
 66
   257
 43
1.0
 76
     1
 77
     6
 78
     2
 67
     7
 79
     3
170
     0
171
     0
290
     0
174
     0
 93
        1
 44
0.0
173
     0
291
     0
 45
0.0
1001
ACAD
1000
AcDbSavedByObjectVersion
1070
     0
  0
VISUALSTYLE
  5
B1A
102
{ACAD_XDICTIONARY
360
BEC
102
}
102
{ACAD_REACTORS
330
B07
102
}
330
B07
100
AcDbVisualStyle
  2
X-Ray
 70
    25
 71
     2
 72
     2
 73
     1
 90
        1
 40
0.5
 41
-30.0
 62
     5
 63
     7
421
 16777215
 74
     1
 91
        0
 64
     7
 65
   257
 75
     1
175
     1
 42
1.0
 92
        8
 66
     7
 43
1.0
 76
     1
 77
     6
 78
     2
 67
     7
 79
     3
170
     0
171
     0
290
     0
174
     0
 93
       13
 44
0.0
173
     0
291
     0
 45
0.0
1001
ACAD
1000
AcDbSavedByObjectVersion
1070
     0
  0
DICTIONARYVAR
  5
AF8
102
{ACAD_REACTORS
330
D0
102
}
330
D0
100
DictionaryVariables
280
     0
  1
1:1
  0
DICTIONARYVAR
  5
AFF
102
{ACAD_REACTORS
330
D0
102
}
330
D0
100
DictionaryVariables
280
     0
  1
STANDARD
  0
DICTIONARYVAR
  5
AFE
102
{ACAD_REACTORS
330
D0
102
}
330
D0
100
DictionaryVariables
280
     0
  1
STANDARD
  0
DICTIONARYVAR
  5
BBD
102
{ACAD_REACTORS
330
D0
102
}
330
D0
100
DictionaryVariables
280
     0
  1
Imperial24
  0
DICTIONARYVAR
  5
BBE
102
{ACAD_REACTORS
330
D0
102
}
330
D0
100
DictionaryVariables
280
     0
  1
Imperial24
  0
DICTIONARYVAR
  5
D1
102
{ACAD_REACTORS
330
D0
102
}
330
D0
100
DictionaryVariables
280
     0
  1
1
  0
DICTIONARYVAR
  5
9FA
102
{ACAD_REACTORS
330
D0
102
}
330
D0
100
DictionaryVariables
280
     0
  1
0
  0
DICTIONARYVAR
  5
B00
102
{ACAD_REACTORS
330
D0
102
}
330
D0
100
DictionaryVariables
280
     0
  1
0
  0
DICTIONARYVAR
  5
9F9
102
{ACAD_REACTORS
330
D0
102
}
330
D0
100
DictionaryVariables
280
     0
  1
127
  0
XRECORD
  5
391
102
{ACAD_REACTORS
330
36A
102
}
330
36A
100
AcDbXrecord
280
     1
  1
M:\Cd dwg\Finished for CD Project\Sweets CAD Standard.dws
  0
XRECORD
  5
64E
102
{ACAD_REACTORS
330
64D
102
}
330
64D
100
AcDbXrecord
280
     1
330
0
330
5C0
  0
DICTIONARY
  5
BFA
330
B22
100
AcDbDictionary
280
     1
281
     1
  3
ACAD_XREC_ROUNDTRIP
360
BFB
  0
DICTIONARY
  5
BC3
330
AF1
100
AcDbDictionary
280
     1
281
     1
  3
ACAD_XREC_ROUNDTRIP
360
BC4
  0
DICTIONARY
  5
BC1
330
AF0
100
AcDbDictionary
280
     1
281
     1
  3
ACAD_XREC_ROUNDTRIP
360
BC2
  0
DICTIONARY
  5
BC5
330
AF2
100
AcDbDictionary
280
     1
281
     1
  3
ACAD_XREC_ROUNDTRIP
360
BC6
  0
DICTIONARY
  5
BF8
330
B21
100
AcDbDictionary
280
     1
281
     1
  3
ACAD_XREC_ROUNDTRIP
360
BF9
  0
DICTIONARY
  5
B01
330
AF4
100
AcDbDictionary
280
     1
281
     1
  3
ACAD_ROUNDTRIP_2008_TABLESTYLE_CELLSTYLEMAP
360
BBF
  3
ACAD_XREC_ROUNDTRIP
360
BC7
  0
DICTIONARY
  5
BD2
330
B0D
100
AcDbDictionary
280
     1
281
     1
  3
ACAD_XREC_ROUNDTRIP
360
BD3
  0
DICTIONARY
  5
BD0
330
B0C
100
AcDbDictionary
280
     1
281
     1
  3
ACAD_XREC_ROUNDTRIP
360
BD1
  0
DICTIONARY
  5
BDE
330
B13
100
AcDbDictionary
280
     1
281
     1
  3
ACAD_XREC_ROUNDTRIP
360
BDF
  0
DICTIONARY
  5
BE6
330
B17
100
AcDbDictionary
280
     1
281
     1
  3
ACAD_XREC_ROUNDTRIP
360
BE7
  0
DICTIONARY
  5
BD8
330
B10
100
AcDbDictionary
280
     1
281
     1
  3
ACAD_XREC_ROUNDTRIP
360
BD9
  0
DICTIONARY
  5
BDC
330
B12
100
AcDbDictionary
280
     1
281
     1
  3
ACAD_XREC_ROUNDTRIP
360
BDD
  0
DICTIONARY
  5
BF6
330
B1F
100
AcDbDictionary
280
     1
281
     1
  3
ACAD_XREC_ROUNDTRIP
360
BF7
  0
DICTIONARY
  5
BE4
330
B16
100
AcDbDictionary
280
     1
281
     1
  3
ACAD_XREC_ROUNDTRIP
360
BE5
  0
DICTIONARY
  5
BC8
330
B08
100
AcDbDictionary
280
     1
281
     1
  3
ACAD_XREC_ROUNDTRIP
360
BC9
  0
DICTIONARY
  5
BCA
330
B09
100
AcDbDictionary
280
     1
281
     1
  3
ACAD_XREC_ROUNDTRIP
360
BCB
  0
DICTIONARY
  5
BCC
330
B0A
100
AcDbDictionary
280
     1
281
     1
  3
ACAD_XREC_ROUNDTRIP
360
BCD
  0
DICTIONARY
  5
BCE
330
B0B
100
AcDbDictionary
280
     1
281
     1
  3
ACAD_XREC_ROUNDTRIP
360
BCF
  0
DICTIONARY
  5
BD6
330
B0F
100
AcDbDictionary
280
     1
281
     1
  3
ACAD_XREC_ROUNDTRIP
360
BD7
  0
DICTIONARY
  5
BF2
330
B1D
100
AcDbDictionary
280
     1
281
     1
  3
ACAD_XREC_ROUNDTRIP
360
BF3
  0
DICTIONARY
  5
BE2
330
B15
100
AcDbDictionary
280
     1
281
     1
  3
ACAD_XREC_ROUNDTRIP
360
BE3
  0
DICTIONARY
  5
BF4
330
B1E
100
AcDbDictionary
280
     1
281
     1
  3
ACAD_XREC_ROUNDTRIP
360
BF5
  0
DICTIONARY
  5
BDA
330
B11
100
AcDbDictionary
280
     1
281
     1
  3
ACAD_XREC_ROUNDTRIP
360
BDB
  0
DICTIONARY
  5
BF0
330
B1C
100
AcDbDictionary
280
     1
281
     1
  3
ACAD_XREC_ROUNDTRIP
360
BF1
  0
DICTIONARY
  5
BEE
330
B1B
100
AcDbDictionary
280
     1
281
     1
  3
ACAD_XREC_ROUNDTRIP
360
BEF
  0
DICTIONARY
  5
BE8
330
B18
100
AcDbDictionary
280
     1
281
     1
  3
ACAD_XREC_ROUNDTRIP
360
BE9
  0
DICTIONARY
  5
BEA
330
B19
100
AcDbDictionary
280
     1
281
     1
  3
ACAD_XREC_ROUNDTRIP
360
BEB
  0
DICTIONARY
  5
BE0
330
B14
100
AcDbDictionary
280
     1
281
     1
  3
ACAD_XREC_ROUNDTRIP
360
BE1
  0
DICTIONARY
  5
BD4
330
B0E
100
AcDbDictionary
280
     1
281
     1
  3
ACAD_XREC_ROUNDTRIP
360
BD5
  0
DICTIONARY
  5
BEC
330
B1A
100
AcDbDictionary
280
     1
281
     1
  3
ACAD_XREC_ROUNDTRIP
360
BED
  0
XRECORD
  5
BFB
102
{ACAD_REACTORS
330
BFA
102
}
330
BFA
100
AcDbXrecord
280
     1
102
DISPLAYNAME
  1
Imperial24
102
FLAGS
 90
        0
  0
XRECORD
  5
BC4
102
{ACAD_REACTORS
330
BC3
102
}
330
BC3
100
AcDbXrecord
280
     1
102
MATERIAL
148
0.0
149
0.0
149
0.0
 93
        0
 94
      127
282
     0
 72
     1
 77
     1
171
     1
175
     1
179
     1
273
     0
  0
XRECORD
  5
BC2
102
{ACAD_REACTORS
330
BC1
102
}
330
BC1
100
AcDbXrecord
280
     1
102
MATERIAL
148
0.0
149
0.0
149
0.0
 93
        0
 94
      127
282
     0
 72
     1
 77
     1
171
     1
175
     1
179
     1
273
     0
  0
XRECORD
  5
BC6
102
{ACAD_REACTORS
330
BC5
102
}
330
BC5
100
AcDbXrecord
280
     1
102
MATERIAL
148
0.0
149
0.0
149
0.0
 93
        0
 94
      127
282
     0
 72
     1
 77
     1
171
     1
175
     1
179
     1
273
     0
  0
XRECORD
  5
BF9
102
{ACAD_REACTORS
330
BF8
102
}
330
BF8
100
AcDbXrecord
280
     1
102
DISPLAYNAME
  1
Imperial24
102
FLAGS
 90
        0
  0
CELLSTYLEMAP
  5
BBF
102
{ACAD_REACTORS
330
B01
102
}
330
B01
100
AcDbCellStyleMap
 90
        3
300
CELLSTYLE
  1
TABLEFORMAT_BEGIN
 90
        5
170
     1
 91
        0
 92
    32768
 62
   257
 93
        1
300
CONTENTFORMAT
  1
CONTENTFORMAT_BEGIN
 90
        0
 91
        0
 92
        4
 93
        0
300

 40
0.0
140
1.0
 94
        5
 62
     0
340
17
144
0.25
309
CONTENTFORMAT_END
171
     1
301
MARGIN
  1
CELLMARGIN_BEGIN
 40
0.06
 40
0.06
 40
0.06
 40
0.06
 40
0.06
 40
0.06
309
CELLMARGIN_END
 94
        6
 95
        1
302
GRIDFORMAT
  1
GRIDFORMAT_BEGIN
 90
        0
 91
        1
 62
     0
 92
       -2
340
11
 93
        0
 40
0.045
309
GRIDFORMAT_END
 95
        2
302
GRIDFORMAT
  1
GRIDFORMAT_BEGIN
 90
        0
 91
        1
 62
     0
 92
       -2
340
11
 93
        0
 40
0.045
309
GRIDFORMAT_END
 95
        4
302
GRIDFORMAT
  1
GRIDFORMAT_BEGIN
 90
        0
 91
        1
 62
     0
 92
       -2
340
11
 93
        0
 40
0.045
309
GRIDFORMAT_END
 95
        8
302
GRIDFORMAT
  1
GRIDFORMAT_BEGIN
 90
        0
 91
        1
 62
     0
 92
       -2
340
11
 93
        0
 40
0.045
309
GRIDFORMAT_END
 95
       16
302
GRIDFORMAT
  1
GRIDFORMAT_BEGIN
 90
        0
 91
        1
 62
     0
 92
       -2
340
11
 93
        0
 40
0.045
309
GRIDFORMAT_END
 95
       32
302
GRIDFORMAT
  1
GRIDFORMAT_BEGIN
 90
        0
 91
        1
 62
     0
 92
       -2
340
11
 93
        0
 40
0.045
309
GRIDFORMAT_END
309
TABLEFORMAT_END
  1
CELLSTYLE_BEGIN
 90
        1
 91
        1
300
_TITLE
309
CELLSTYLE_END
300
CELLSTYLE
  1
TABLEFORMAT_BEGIN
 90
        5
170
     1
 91
        0
 92
        0
 62
   257
 93
        1
300
CONTENTFORMAT
  1
CONTENTFORMAT_BEGIN
 90
        0
 91
        0
 92
        4
 93
        0
300

 40
0.0
140
1.0
 94
        5
 62
     0
340
17
144
0.18
309
CONTENTFORMAT_END
171
     1
301
MARGIN
  1
CELLMARGIN_BEGIN
 40
0.06
 40
0.06
 40
0.06
 40
0.06
 40
0.06
 40
0.06
309
CELLMARGIN_END
 94
        6
 95
        1
302
GRIDFORMAT
  1
GRIDFORMAT_BEGIN
 90
        0
 91
        1
 62
     0
 92
       -2
340
11
 93
        0
 40
0.045
309
GRIDFORMAT_END
 95
        2
302
GRIDFORMAT
  1
GRIDFORMAT_BEGIN
 90
        0
 91
        1
 62
     0
 92
       -2
340
11
 93
        0
 40
0.045
309
GRIDFORMAT_END
 95
        4
302
GRIDFORMAT
  1
GRIDFORMAT_BEGIN
 90
        0
 91
        1
 62
     0
 92
       -2
340
11
 93
        0
 40
0.045
309
GRIDFORMAT_END
 95
        8
302
GRIDFORMAT
  1
GRIDFORMAT_BEGIN
 90
        0
 91
        1
 62
     0
 92
       -2
340
11
 93
        0
 40
0.045
309
GRIDFORMAT_END
 95
       16
302
GRIDFORMAT
  1
GRIDFORMAT_BEGIN
 90
        0
 91
        1
 62
     0
 92
       -2
340
11
 93
        0
 40
0.045
309
GRIDFORMAT_END
 95
       32
302
GRIDFORMAT
  1
GRIDFORMAT_BEGIN
 90
        0
 91
        1
 62
     0
 92
       -2
340
11
 93
        0
 40
0.045
309
GRIDFORMAT_END
309
TABLEFORMAT_END
  1
CELLSTYLE_BEGIN
 90
        2
 91
        1
300
_HEADER
309
CELLSTYLE_END
300
CELLSTYLE
  1
TABLEFORMAT_BEGIN
 90
        5
170
     1
 91
        0
 92
        0
 62
   257
 93
        1
300
CONTENTFORMAT
  1
CONTENTFORMAT_BEGIN
 90
        0
 91
        0
 92
        4
 93
        0
300

 40
0.0
140
1.0
 94
        2
 62
     0
340
17
144
0.18
309
CONTENTFORMAT_END
171
     1
301
MARGIN
  1
CELLMARGIN_BEGIN
 40
0.06
 40
0.06
 40
0.06
 40
0.06
 40
0.06
 40
0.06
309
CELLMARGIN_END
 94
        6
 95
        1
302
GRIDFORMAT
  1
GRIDFORMAT_BEGIN
 90
        0
 91
        1
 62
     0
 92
       -2
340
11
 93
        0
 40
0.045
309
GRIDFORMAT_END
 95
        2
302
GRIDFORMAT
  1
GRIDFORMAT_BEGIN
 90
        0
 91
        1
 62
     0
 92
       -2
340
11
 93
        0
 40
0.045
309
GRIDFORMAT_END
 95
        4
302
GRIDFORMAT
  1
GRIDFORMAT_BEGIN
 90
        0
 91
        1
 62
     0
 92
       -2
340
11
 93
        0
 40
0.045
309
GRIDFORMAT_END
 95
        8
302
GRIDFORMAT
  1
GRIDFORMAT_BEGIN
 90
        0
 91
        1
 62
     0
 92
       -2
340
11
 93
        0
 40
0.045
309
GRIDFORMAT_END
 95
       16
302
GRIDFORMAT
  1
GRIDFORMAT_BEGIN
 90
        0
 91
        1
 62
     0
 92
       -2
340
11
 93
        0
 40
0.045
309
GRIDFORMAT_END
 95
       32
302
GRIDFORMAT
  1
GRIDFORMAT_BEGIN
 90
        0
 91
        1
 62
     0
 92
       -2
340
11
 93
        0
 40
0.045
309
GRIDFORMAT_END
309
TABLEFORMAT_END
  1
CELLSTYLE_BEGIN
 90
        3
 91
        2
300
_DATA
309
CELLSTYLE_END
  0
XRECORD
  5
BC7
102
{ACAD_REACTORS
330
B01
102
}
330
B01
100
AcDbXrecord
280
     1
102
ACAD_ROUNDTRIP_PRE2007_TABLESTYLE
 90
        4
 91
        0
  1

 92
        4
 93
        0
  2

 94
        4
 95
        0
  3

  0
XRECORD
  5
BD3
102
{ACAD_REACTORS
330
BD2
102
}
330
BD2
100
AcDbXrecord
280
     1
102
RTVSPost2010Prop28
280
     1
102
RTVSPost2010PropOp28
 70
     1
102
RTVSPost2010Prop29
280
     1
102
RTVSPost2010PropOp29
 70
     1
102
RTVSPost2010Prop30
280
     0
102
RTVSPost2010PropOp30
 70
     1
102
RTVSPost2010Prop31
280
     0
102
RTVSPost2010PropOp31
 70
     1
102
RTVSPost2010Prop32
280
     0
102
RTVSPost2010PropOp32
 70
     1
102
RTVSPost2010Prop33
280
     0
102
RTVSPost2010PropOp33
 70
     1
102
RTVSPost2010Prop34
280
     0
102
RTVSPost2010PropOp34
 70
     1
102
RTVSPost2010Prop35
280
     0
102
RTVSPost2010PropOp35
 70
     1
102
RTVSPost2010Prop36
280
     0
102
RTVSPost2010PropOp36
 70
     1
102
RTVSPost2010Prop37
 90
       50
102
RTVSPost2010PropOp37
 70
     1
102
RTVSPost2010Prop38
140
0.0
102
RTVSPost2010PropOp38
 70
     1
102
RTVSPost2010Prop39
140
1.0
102
RTVSPost2010PropOp39
 70
     1
102
RTVSPost2010Prop40
 90
        0
102
RTVSPost2010PropOp40
 70
     1
102
RTVSPost2010Prop41ColorIndex
 90
       18
102
RTVSPost2010Prop41ColorRGB
 90
        0
102
RTVSPost2010PropOp41
 70
     1
102
RTVSPost2010Prop42
 90
       50
102
RTVSPost2010PropOp42
 70
     1
102
RTVSPost2010Prop43
 90
        3
102
RTVSPost2010PropOp43
 70
     1
102
RTVSPost2010Prop44ColorIndex
 90
        5
102
RTVSPost2010Prop44ColorRGB
 90
      255
102
RTVSPost2010PropOp44
 70
     1
102
RTVSPost2010Prop45
280
     0
102
RTVSPost2010PropOp45
 70
     1
102
RTVSPost2010Prop46
 90
       50
102
RTVSPost2010PropOp46
 70
     1
102
RTVSPost2010Prop47
 90
       50
102
RTVSPost2010PropOp47
 70
     1
102
RTVSPost2010Prop48
 90
       50
102
RTVSPost2010PropOp48
 70
     1
102
RTVSPost2010Prop49
280
     0
102
RTVSPost2010PropOp49
 70
     1
102
RTVSPost2010Prop50
 90
       50
102
RTVSPost2010PropOp50
 70
     1
102
RTVSPost2010Prop51ColorIndex
 90
      256
102
RTVSPost2010Prop51ColorRGB
 90
-16777216
102
RTVSPost2010PropOp51
 70
     0
102
RTVSPost2010Prop52
140
1.0
102
RTVSPost2010PropOp52
 70
     0
102
RTVSPost2010Prop53
 90
        2
102
RTVSPost2010PropOp53
 70
     1
102
RTVSPost2010Prop54
  1
strokes_ogs.tif
102
RTVSPost2010PropOp54
 70
     1
102
RTVSPost2010Prop55
280
     0
102
RTVSPost2010PropOp55
 70
     1
102
RTVSPost2010Prop56
140
1.0
102
RTVSPost2010PropOp56
 70
     1
102
RTVSPost2010Prop57
140
1.0
102
RTVSPost2010PropOp57
 70
     1
102
RTVSPropertyOp0
 70
     1
102
RTVSPropertyOp1
 70
     1
102
RTVSPropertyOp2
 70
     1
102
RTVSPropertyOp3
 70
     1
102
RTVSPropertyOp4
 70
     1
102
RTVSPropertyOp5
 70
     1
102
RTVSPropertyOp6
 70
     1
102
RTVSPropertyOp7
 70
     1
102
RTVSPropertyOp8
 70
     1
102
RTVSPropertyOp9
 70
     1
102
RTVSPropertyOp10
 70
     1
102
RTVSPropertyOp11
 70
     1
102
RTVSPropertyOp12
 70
     1
102
RTVSPropertyOp13
 70
     1
102
RTVSPropertyOp14
 70
     1
102
RTVSPropertyOp15
 70
     1
102
RTVSPropertyOp16
 70
     1
102
RTVSPropertyOp17
 70
     1
102
RTVSPropertyOp18
 70
     1
102
RTVSPropertyOp19
 70
     1
102
RTVSPropertyOp20
 70
     1
102
RTVSPropertyOp21
 70
     1
102
RTVSPropertyOp22
 70
     1
102
RTVSPropertyOp23
 70
     1
102
RTVSPropertyOp24
 70
     1
102
RTVSPropertyOp25
 70
     1
102
RTVSPropertyOp26
 70
     1
102
RTVSPropertyOp27
 70
     1
102
RTVSPropertyOp28
 70
     1
102
RTVSPropertyOp29
 70
     1
102
RTVSPropertyOp30
 70
     1
102
RTVSPropertyOp31
 70
     1
102
RTVSPropertyOp32
 70
     1
102
RTVSPropertyOp33
 70
     1
102
RTVSPropertyOp34
 70
     1
102
RTVSPropertyOp35
 70
     1
102
RTVSPropertyOp36
 70
     1
102
RTVSPropertyOp37
 70
     1
102
RTVSPropertyOp38
 70
     1
102
RTVSPropertyOp39
 70
     1
102
RTVSPropertyOp40
 70
     1
102
RTVSPropertyOp41
 70
     1
102
RTVSPropertyOp42
 70
     1
102
RTVSPropertyOp43
 70
     1
102
RTVSPropertyOp44
 70
     1
102
RTVSPropertyOp45
 70
     1
102
RTVSPropertyOp46
 70
     1
102
RTVSPropertyOp47
 70
     1
102
RTVSPropertyOp48
 70
     1
102
RTVSPropertyOp49
 70
     1
102
RTVSPropertyOp50
 70
     1
102
RTVSPropertyOp51
 70
     0
102
RTVSPropertyOp52
 70
     0
102
RTVSPropertyOp53
 70
     1
102
RTVSPropertyOp54
 70
     1
102
RTVSPropertyOp55
 70
     1
102
RTVSPropertyOp56
 70
     1
102
RTVSPropertyOp57
 70
     1
102
RTVSPropertyOp58
 70
     1
102
RTVSPropertyOp59
 70
     1
102
RTVSPropertyOp60
 70
     1
102
RTVSPropertyOp61
 70
     1
102
RTVSPropertyOp62
 70
     1
  0
XRECORD
  5
BD1
102
{ACAD_REACTORS
330
BD0
102
}
330
BD0
100
AcDbXrecord
280
     1
102
RTVSPost2010Prop28
280
     0
102
RTVSPost2010PropOp28
 70
     1
102
RTVSPost2010Prop29
280
     1
102
RTVSPost2010PropOp29
 70
     1
102
RTVSPost2010Prop30
280
     1
102
RTVSPost2010PropOp30
 70
     1
102
RTVSPost2010Prop31
280
     0
102
RTVSPost2010PropOp31
 70
     1
102
RTVSPost2010Prop32
280
     0
102
RTVSPost2010PropOp32
 70
     1
102
RTVSPost2010Prop33
280
     0
102
RTVSPost2010PropOp33
 70
     1
102
RTVSPost2010Prop34
280
     0
102
RTVSPost2010PropOp34
 70
     1
102
RTVSPost2010Prop35
280
     0
102
RTVSPost2010PropOp35
 70
     1
102
RTVSPost2010Prop36
280
     0
102
RTVSPost2010PropOp36
 70
     1
102
RTVSPost2010Prop37
 90
       50
102
RTVSPost2010PropOp37
 70
     1
102
RTVSPost2010Prop38
140
0.0
102
RTVSPost2010PropOp38
 70
     1
102
RTVSPost2010Prop39
140
1.0
102
RTVSPost2010PropOp39
 70
     1
102
RTVSPost2010Prop40
 90
        0
102
RTVSPost2010PropOp40
 70
     1
102
RTVSPost2010Prop41ColorIndex
 90
       18
102
RTVSPost2010Prop41ColorRGB
 90
        0
102
RTVSPost2010PropOp41
 70
     1
102
RTVSPost2010Prop42
 90
       50
102
RTVSPost2010PropOp42
 70
     1
102
RTVSPost2010Prop43
 90
        3
102
RTVSPost2010PropOp43
 70
     1
102
RTVSPost2010Prop44ColorIndex
 90
        5
102
RTVSPost2010Prop44ColorRGB
 90
      255
102
RTVSPost2010PropOp44
 70
     1
102
RTVSPost2010Prop45
280
     0
102
RTVSPost2010PropOp45
 70
     1
102
RTVSPost2010Prop46
 90
       50
102
RTVSPost2010PropOp46
 70
     1
102
RTVSPost2010Prop47
 90
       50
102
RTVSPost2010PropOp47
 70
     1
102
RTVSPost2010Prop48
 90
       50
102
RTVSPost2010PropOp48
 70
     1
102
RTVSPost2010Prop49
280
     0
102
RTVSPost2010PropOp49
 70
     1
102
RTVSPost2010Prop50
 90
       50
102
RTVSPost2010PropOp50
 70
     1
102
RTVSPost2010Prop51ColorIndex
 90
      256
102
RTVSPost2010Prop51ColorRGB
 90
-16777216
102
RTVSPost2010PropOp51
 70
     0
102
RTVSPost2010Prop52
140
1.0
102
RTVSPost2010PropOp52
 70
     0
102
RTVSPost2010Prop53
 90
        2
102
RTVSPost2010PropOp53
 70
     1
102
RTVSPost2010Prop54
  1
strokes_ogs.tif
102
RTVSPost2010PropOp54
 70
     1
102
RTVSPost2010Prop55
280
     0
102
RTVSPost2010PropOp55
 70
     1
102
RTVSPost2010Prop56
140
1.0
102
RTVSPost2010PropOp56
 70
     1
102
RTVSPost2010Prop57
140
1.0
102
RTVSPost2010PropOp57
 70
     1
102
RTVSPropertyOp0
 70
     1
102
RTVSPropertyOp1
 70
     1
102
RTVSPropertyOp2
 70
     1
102
RTVSPropertyOp3
 70
     1
102
RTVSPropertyOp4
 70
     1
102
RTVSPropertyOp5
 70
     1
102
RTVSPropertyOp6
 70
     1
102
RTVSPropertyOp7
 70
     1
102
RTVSPropertyOp8
 70
     1
102
RTVSPropertyOp9
 70
     1
102
RTVSPropertyOp10
 70
     1
102
RTVSPropertyOp11
 70
     1
102
RTVSPropertyOp12
 70
     1
102
RTVSPropertyOp13
 70
     1
102
RTVSPropertyOp14
 70
     1
102
RTVSPropertyOp15
 70
     1
102
RTVSPropertyOp16
 70
     1
102
RTVSPropertyOp17
 70
     1
102
RTVSPropertyOp18
 70
     1
102
RTVSPropertyOp19
 70
     1
102
RTVSPropertyOp20
 70
     1
102
RTVSPropertyOp21
 70
     1
102
RTVSPropertyOp22
 70
     1
102
RTVSPropertyOp23
 70
     1
102
RTVSPropertyOp24
 70
     1
102
RTVSPropertyOp25
 70
     1
102
RTVSPropertyOp26
 70
     1
102
RTVSPropertyOp27
 70
     1
102
RTVSPropertyOp28
 70
     1
102
RTVSPropertyOp29
 70
     1
102
RTVSPropertyOp30
 70
     1
102
RTVSPropertyOp31
 70
     1
102
RTVSPropertyOp32
 70
     1
102
RTVSPropertyOp33
 70
     1
102
RTVSPropertyOp34
 70
     1
102
RTVSPropertyOp35
 70
     1
102
RTVSPropertyOp36
 70
     1
102
RTVSPropertyOp37
 70
     1
102
RTVSPropertyOp38
 70
     1
102
RTVSPropertyOp39
 70
     1
102
RTVSPropertyOp40
 70
     1
102
RTVSPropertyOp41
 70
     1
102
RTVSPropertyOp42
 70
     1
102
RTVSPropertyOp43
 70
     1
102
RTVSPropertyOp44
 70
     1
102
RTVSPropertyOp45
 70
     1
102
RTVSPropertyOp46
 70
     1
102
RTVSPropertyOp47
 70
     1
102
RTVSPropertyOp48
 70
     1
102
RTVSPropertyOp49
 70
     1
102
RTVSPropertyOp50
 70
     1
102
RTVSPropertyOp51
 70
     0
102
RTVSPropertyOp52
 70
     0
102
RTVSPropertyOp53
 70
     1
102
RTVSPropertyOp54
 70
     1
102
RTVSPropertyOp55
 70
     1
102
RTVSPropertyOp56
 70
     1
102
RTVSPropertyOp57
 70
     1
102
RTVSPropertyOp58
 70
     1
102
RTVSPropertyOp59
 70
     1
102
RTVSPropertyOp60
 70
     1
102
RTVSPropertyOp61
 70
     1
102
RTVSPropertyOp62
 70
     1
  0
XRECORD
  5
BDF
102
{ACAD_REACTORS
330
BDE
102
}
330
BDE
100
AcDbXrecord
280
     1
102
RTVSPost2010Prop28
280
     0
102
RTVSPost2010PropOp28
 70
     1
102
RTVSPost2010Prop29
280
     1
102
RTVSPost2010PropOp29
 70
     1
102
RTVSPost2010Prop30
280
     1
102
RTVSPost2010PropOp30
 70
     1
102
RTVSPost2010Prop31
280
     0
102
RTVSPost2010PropOp31
 70
     1
102
RTVSPost2010Prop32
280
     0
102
RTVSPost2010PropOp32
 70
     1
102
RTVSPost2010Prop33
280
     0
102
RTVSPost2010PropOp33
 70
     1
102
RTVSPost2010Prop34
280
     0
102
RTVSPost2010PropOp34
 70
     1
102
RTVSPost2010Prop35
280
     0
102
RTVSPost2010PropOp35
 70
     1
102
RTVSPost2010Prop36
280
     0
102
RTVSPost2010PropOp36
 70
     1
102
RTVSPost2010Prop37
 90
       50
102
RTVSPost2010PropOp37
 70
     1
102
RTVSPost2010Prop38
140
0.0
102
RTVSPost2010PropOp38
 70
     1
102
RTVSPost2010Prop39
140
1.0
102
RTVSPost2010PropOp39
 70
     1
102
RTVSPost2010Prop40
 90
        0
102
RTVSPost2010PropOp40
 70
     1
102
RTVSPost2010Prop41ColorIndex
 90
       18
102
RTVSPost2010Prop41ColorRGB
 90
        0
102
RTVSPost2010PropOp41
 70
     1
102
RTVSPost2010Prop42
 90
       50
102
RTVSPost2010PropOp42
 70
     1
102
RTVSPost2010Prop43
 90
        3
102
RTVSPost2010PropOp43
 70
     1
102
RTVSPost2010Prop44ColorIndex
 90
        5
102
RTVSPost2010Prop44ColorRGB
 90
      255
102
RTVSPost2010PropOp44
 70
     1
102
RTVSPost2010Prop45
280
     0
102
RTVSPost2010PropOp45
 70
     1
102
RTVSPost2010Prop46
 90
       50
102
RTVSPost2010PropOp46
 70
     1
102
RTVSPost2010Prop47
 90
       50
102
RTVSPost2010PropOp47
 70
     1
102
RTVSPost2010Prop48
 90
       50
102
RTVSPost2010PropOp48
 70
     1
102
RTVSPost2010Prop49
280
     0
102
RTVSPost2010PropOp49
 70
     1
102
RTVSPost2010Prop50
 90
       50
102
RTVSPost2010PropOp50
 70
     1
102
RTVSPost2010Prop51ColorIndex
 90
      256
102
RTVSPost2010Prop51ColorRGB
 90
-16777216
102
RTVSPost2010PropOp51
 70
     0
102
RTVSPost2010Prop52
140
1.0
102
RTVSPost2010PropOp52
 70
     0
102
RTVSPost2010Prop53
 90
        2
102
RTVSPost2010PropOp53
 70
     1
102
RTVSPost2010Prop54
  1
strokes_ogs.tif
102
RTVSPost2010PropOp54
 70
     1
102
RTVSPost2010Prop55
280
     0
102
RTVSPost2010PropOp55
 70
     1
102
RTVSPost2010Prop56
140
1.0
102
RTVSPost2010PropOp56
 70
     1
102
RTVSPost2010Prop57
140
1.0
102
RTVSPost2010PropOp57
 70
     1
102
RTVSPropertyOp0
 70
     1
102
RTVSPropertyOp1
 70
     1
102
RTVSPropertyOp2
 70
     1
102
RTVSPropertyOp3
 70
     1
102
RTVSPropertyOp4
 70
     1
102
RTVSPropertyOp5
 70
     1
102
RTVSPropertyOp6
 70
     1
102
RTVSPropertyOp7
 70
     1
102
RTVSPropertyOp8
 70
     1
102
RTVSPropertyOp9
 70
     1
102
RTVSPropertyOp10
 70
     1
102
RTVSPropertyOp11
 70
     1
102
RTVSPropertyOp12
 70
     1
102
RTVSPropertyOp13
 70
     1
102
RTVSPropertyOp14
 70
     1
102
RTVSPropertyOp15
 70
     1
102
RTVSPropertyOp16
 70
     1
102
RTVSPropertyOp17
 70
     1
102
RTVSPropertyOp18
 70
     1
102
RTVSPropertyOp19
 70
     1
102
RTVSPropertyOp20
 70
     1
102
RTVSPropertyOp21
 70
     1
102
RTVSPropertyOp22
 70
     1
102
RTVSPropertyOp23
 70
     1
102
RTVSPropertyOp24
 70
     1
102
RTVSPropertyOp25
 70
     1
102
RTVSPropertyOp26
 70
     1
102
RTVSPropertyOp27
 70
     1
102
RTVSPropertyOp28
 70
     1
102
RTVSPropertyOp29
 70
     1
102
RTVSPropertyOp30
 70
     1
102
RTVSPropertyOp31
 70
     1
102
RTVSPropertyOp32
 70
     1
102
RTVSPropertyOp33
 70
     1
102
RTVSPropertyOp34
 70
     1
102
RTVSPropertyOp35
 70
     1
102
RTVSPropertyOp36
 70
     1
102
RTVSPropertyOp37
 70
     1
102
RTVSPropertyOp38
 70
     1
102
RTVSPropertyOp39
 70
     1
102
RTVSPropertyOp40
 70
     1
102
RTVSPropertyOp41
 70
     1
102
RTVSPropertyOp42
 70
     1
102
RTVSPropertyOp43
 70
     1
102
RTVSPropertyOp44
 70
     1
102
RTVSPropertyOp45
 70
     1
102
RTVSPropertyOp46
 70
     1
102
RTVSPropertyOp47
 70
     1
102
RTVSPropertyOp48
 70
     1
102
RTVSPropertyOp49
 70
     1
102
RTVSPropertyOp50
 70
     1
102
RTVSPropertyOp51
 70
     0
102
RTVSPropertyOp52
 70
     0
102
RTVSPropertyOp53
 70
     1
102
RTVSPropertyOp54
 70
     1
102
RTVSPropertyOp55
 70
     1
102
RTVSPropertyOp56
 70
     1
102
RTVSPropertyOp57
 70
     1
102
RTVSPropertyOp58
 70
     1
102
RTVSPropertyOp59
 70
     1
102
RTVSPropertyOp60
 70
     1
102
RTVSPropertyOp61
 70
     1
102
RTVSPropertyOp62
 70
     1
  0
XRECORD
  5
BE7
102
{ACAD_REACTORS
330
BE6
102
}
330
BE6
100
AcDbXrecord
280
     1
102
RTVSPost2010Prop28
280
     0
102
RTVSPost2010PropOp28
 70
     1
102
RTVSPost2010Prop29
280
     1
102
RTVSPost2010PropOp29
 70
     1
102
RTVSPost2010Prop30
280
     1
102
RTVSPost2010PropOp30
 70
     1
102
RTVSPost2010Prop31
280
     0
102
RTVSPost2010PropOp31
 70
     1
102
RTVSPost2010Prop32
280
     0
102
RTVSPost2010PropOp32
 70
     1
102
RTVSPost2010Prop33
280
     0
102
RTVSPost2010PropOp33
 70
     1
102
RTVSPost2010Prop34
280
     0
102
RTVSPost2010PropOp34
 70
     1
102
RTVSPost2010Prop35
280
     0
102
RTVSPost2010PropOp35
 70
     1
102
RTVSPost2010Prop36
280
     0
102
RTVSPost2010PropOp36
 70
     1
102
RTVSPost2010Prop37
 90
       50
102
RTVSPost2010PropOp37
 70
     1
102
RTVSPost2010Prop38
140
0.0
102
RTVSPost2010PropOp38
 70
     1
102
RTVSPost2010Prop39
140
1.0
102
RTVSPost2010PropOp39
 70
     1
102
RTVSPost2010Prop40
 90
        0
102
RTVSPost2010PropOp40
 70
     1
102
RTVSPost2010Prop41ColorIndex
 90
       18
102
RTVSPost2010Prop41ColorRGB
 90
        0
102
RTVSPost2010PropOp41
 70
     1
102
RTVSPost2010Prop42
 90
       50
102
RTVSPost2010PropOp42
 70
     1
102
RTVSPost2010Prop43
 90
        3
102
RTVSPost2010PropOp43
 70
     1
102
RTVSPost2010Prop44ColorIndex
 90
        5
102
RTVSPost2010Prop44ColorRGB
 90
      255
102
RTVSPost2010PropOp44
 70
     1
102
RTVSPost2010Prop45
280
     0
102
RTVSPost2010PropOp45
 70
     1
102
RTVSPost2010Prop46
 90
       50
102
RTVSPost2010PropOp46
 70
     1
102
RTVSPost2010Prop47
 90
       50
102
RTVSPost2010PropOp47
 70
     1
102
RTVSPost2010Prop48
 90
       50
102
RTVSPost2010PropOp48
 70
     1
102
RTVSPost2010Prop49
280
     0
102
RTVSPost2010PropOp49
 70
     1
102
RTVSPost2010Prop50
 90
       50
102
RTVSPost2010PropOp50
 70
     1
102
RTVSPost2010Prop51ColorIndex
 90
      256
102
RTVSPost2010Prop51ColorRGB
 90
-16777216
102
RTVSPost2010PropOp51
 70
     0
102
RTVSPost2010Prop52
140
1.0
102
RTVSPost2010PropOp52
 70
     0
102
RTVSPost2010Prop53
 90
        2
102
RTVSPost2010PropOp53
 70
     1
102
RTVSPost2010Prop54
  1
strokes_ogs.tif
102
RTVSPost2010PropOp54
 70
     1
102
RTVSPost2010Prop55
280
     0
102
RTVSPost2010PropOp55
 70
     1
102
RTVSPost2010Prop56
140
1.0
102
RTVSPost2010PropOp56
 70
     1
102
RTVSPost2010Prop57
140
1.0
102
RTVSPost2010PropOp57
 70
     1
102
RTVSPropertyOp0
 70
     1
102
RTVSPropertyOp1
 70
     1
102
RTVSPropertyOp2
 70
     1
102
RTVSPropertyOp3
 70
     1
102
RTVSPropertyOp4
 70
     1
102
RTVSPropertyOp5
 70
     1
102
RTVSPropertyOp6
 70
     1
102
RTVSPropertyOp7
 70
     1
102
RTVSPropertyOp8
 70
     1
102
RTVSPropertyOp9
 70
     1
102
RTVSPropertyOp10
 70
     1
102
RTVSPropertyOp11
 70
     1
102
RTVSPropertyOp12
 70
     1
102
RTVSPropertyOp13
 70
     1
102
RTVSPropertyOp14
 70
     1
102
RTVSPropertyOp15
 70
     1
102
RTVSPropertyOp16
 70
     1
102
RTVSPropertyOp17
 70
     1
102
RTVSPropertyOp18
 70
     1
102
RTVSPropertyOp19
 70
     1
102
RTVSPropertyOp20
 70
     1
102
RTVSPropertyOp21
 70
     1
102
RTVSPropertyOp22
 70
     1
102
RTVSPropertyOp23
 70
     1
102
RTVSPropertyOp24
 70
     1
102
RTVSPropertyOp25
 70
     1
102
RTVSPropertyOp26
 70
     1
102
RTVSPropertyOp27
 70
     1
102
RTVSPropertyOp28
 70
     1
102
RTVSPropertyOp29
 70
     1
102
RTVSPropertyOp30
 70
     1
102
RTVSPropertyOp31
 70
     1
102
RTVSPropertyOp32
 70
     1
102
RTVSPropertyOp33
 70
     1
102
RTVSPropertyOp34
 70
     1
102
RTVSPropertyOp35
 70
     1
102
RTVSPropertyOp36
 70
     1
102
RTVSPropertyOp37
 70
     1
102
RTVSPropertyOp38
 70
     1
102
RTVSPropertyOp39
 70
     1
102
RTVSPropertyOp40
 70
     1
102
RTVSPropertyOp41
 70
     1
102
RTVSPropertyOp42
 70
     1
102
RTVSPropertyOp43
 70
     1
102
RTVSPropertyOp44
 70
     1
102
RTVSPropertyOp45
 70
     1
102
RTVSPropertyOp46
 70
     1
102
RTVSPropertyOp47
 70
     1
102
RTVSPropertyOp48
 70
     1
102
RTVSPropertyOp49
 70
     1
102
RTVSPropertyOp50
 70
     1
102
RTVSPropertyOp51
 70
     0
102
RTVSPropertyOp52
 70
     0
102
RTVSPropertyOp53
 70
     1
102
RTVSPropertyOp54
 70
     1
102
RTVSPropertyOp55
 70
     1
102
RTVSPropertyOp56
 70
     1
102
RTVSPropertyOp57
 70
     1
102
RTVSPropertyOp58
 70
     1
102
RTVSPropertyOp59
 70
     1
102
RTVSPropertyOp60
 70
     1
102
RTVSPropertyOp61
 70
     1
102
RTVSPropertyOp62
 70
     1
  0
XRECORD
  5
BD9
102
{ACAD_REACTORS
330
BD8
102
}
330
BD8
100
AcDbXrecord
280
     1
102
RTVSPost2010Prop28
280
     0
102
RTVSPost2010PropOp28
 70
     1
102
RTVSPost2010Prop29
280
     1
102
RTVSPost2010PropOp29
 70
     1
102
RTVSPost2010Prop30
280
     1
102
RTVSPost2010PropOp30
 70
     1
102
RTVSPost2010Prop31
280
     0
102
RTVSPost2010PropOp31
 70
     1
102
RTVSPost2010Prop32
280
     0
102
RTVSPost2010PropOp32
 70
     1
102
RTVSPost2010Prop33
280
     0
102
RTVSPost2010PropOp33
 70
     1
102
RTVSPost2010Prop34
280
     0
102
RTVSPost2010PropOp34
 70
     1
102
RTVSPost2010Prop35
280
     0
102
RTVSPost2010PropOp35
 70
     1
102
RTVSPost2010Prop36
280
     0
102
RTVSPost2010PropOp36
 70
     1
102
RTVSPost2010Prop37
 90
       50
102
RTVSPost2010PropOp37
 70
     1
102
RTVSPost2010Prop38
140
0.0
102
RTVSPost2010PropOp38
 70
     1
102
RTVSPost2010Prop39
140
1.0
102
RTVSPost2010PropOp39
 70
     1
102
RTVSPost2010Prop40
 90
        0
102
RTVSPost2010PropOp40
 70
     1
102
RTVSPost2010Prop41ColorIndex
 90
       18
102
RTVSPost2010Prop41ColorRGB
 90
        0
102
RTVSPost2010PropOp41
 70
     1
102
RTVSPost2010Prop42
 90
       50
102
RTVSPost2010PropOp42
 70
     1
102
RTVSPost2010Prop43
 90
        3
102
RTVSPost2010PropOp43
 70
     1
102
RTVSPost2010Prop44ColorIndex
 90
        5
102
RTVSPost2010Prop44ColorRGB
 90
      255
102
RTVSPost2010PropOp44
 70
     1
102
RTVSPost2010Prop45
280
     0
102
RTVSPost2010PropOp45
 70
     1
102
RTVSPost2010Prop46
 90
       50
102
RTVSPost2010PropOp46
 70
     1
102
RTVSPost2010Prop47
 90
       50
102
RTVSPost2010PropOp47
 70
     1
102
RTVSPost2010Prop48
 90
       50
102
RTVSPost2010PropOp48
 70
     1
102
RTVSPost2010Prop49
280
     0
102
RTVSPost2010PropOp49
 70
     1
102
RTVSPost2010Prop50
 90
       50
102
RTVSPost2010PropOp50
 70
     1
102
RTVSPost2010Prop51ColorIndex
 90
      256
102
RTVSPost2010Prop51ColorRGB
 90
-16777216
102
RTVSPost2010PropOp51
 70
     0
102
RTVSPost2010Prop52
140
1.0
102
RTVSPost2010PropOp52
 70
     0
102
RTVSPost2010Prop53
 90
        2
102
RTVSPost2010PropOp53
 70
     1
102
RTVSPost2010Prop54
  1
strokes_ogs.tif
102
RTVSPost2010PropOp54
 70
     1
102
RTVSPost2010Prop55
280
     0
102
RTVSPost2010PropOp55
 70
     1
102
RTVSPost2010Prop56
140
1.0
102
RTVSPost2010PropOp56
 70
     1
102
RTVSPost2010Prop57
140
1.0
102
RTVSPost2010PropOp57
 70
     1
102
RTVSPropertyOp0
 70
     1
102
RTVSPropertyOp1
 70
     1
102
RTVSPropertyOp2
 70
     1
102
RTVSPropertyOp3
 70
     1
102
RTVSPropertyOp4
 70
     1
102
RTVSPropertyOp5
 70
     1
102
RTVSPropertyOp6
 70
     1
102
RTVSPropertyOp7
 70
     1
102
RTVSPropertyOp8
 70
     1
102
RTVSPropertyOp9
 70
     1
102
RTVSPropertyOp10
 70
     1
102
RTVSPropertyOp11
 70
     1
102
RTVSPropertyOp12
 70
     1
102
RTVSPropertyOp13
 70
     1
102
RTVSPropertyOp14
 70
     1
102
RTVSPropertyOp15
 70
     1
102
RTVSPropertyOp16
 70
     1
102
RTVSPropertyOp17
 70
     1
102
RTVSPropertyOp18
 70
     1
102
RTVSPropertyOp19
 70
     1
102
RTVSPropertyOp20
 70
     1
102
RTVSPropertyOp21
 70
     1
102
RTVSPropertyOp22
 70
     1
102
RTVSPropertyOp23
 70
     1
102
RTVSPropertyOp24
 70
     1
102
RTVSPropertyOp25
 70
     1
102
RTVSPropertyOp26
 70
     1
102
RTVSPropertyOp27
 70
     1
102
RTVSPropertyOp28
 70
     1
102
RTVSPropertyOp29
 70
     1
102
RTVSPropertyOp30
 70
     1
102
RTVSPropertyOp31
 70
     1
102
RTVSPropertyOp32
 70
     1
102
RTVSPropertyOp33
 70
     1
102
RTVSPropertyOp34
 70
     1
102
RTVSPropertyOp35
 70
     1
102
RTVSPropertyOp36
 70
     1
102
RTVSPropertyOp37
 70
     1
102
RTVSPropertyOp38
 70
     1
102
RTVSPropertyOp39
 70
     1
102
RTVSPropertyOp40
 70
     1
102
RTVSPropertyOp41
 70
     1
102
RTVSPropertyOp42
 70
     1
102
RTVSPropertyOp43
 70
     1
102
RTVSPropertyOp44
 70
     1
102
RTVSPropertyOp45
 70
     1
102
RTVSPropertyOp46
 70
     1
102
RTVSPropertyOp47
 70
     1
102
RTVSPropertyOp48
 70
     1
102
RTVSPropertyOp49
 70
     1
102
RTVSPropertyOp50
 70
     1
102
RTVSPropertyOp51
 70
     0
102
RTVSPropertyOp52
 70
     0
102
RTVSPropertyOp53
 70
     1
102
RTVSPropertyOp54
 70
     1
102
RTVSPropertyOp55
 70
     1
102
RTVSPropertyOp56
 70
     1
102
RTVSPropertyOp57
 70
     1
102
RTVSPropertyOp58
 70
     1
102
RTVSPropertyOp59
 70
     1
102
RTVSPropertyOp60
 70
     1
102
RTVSPropertyOp61
 70
     1
102
RTVSPropertyOp62
 70
     1
  0
XRECORD
  5
BDD
102
{ACAD_REACTORS
330
BDC
102
}
330
BDC
100
AcDbXrecord
280
     1
102
RTVSPost2010Prop28
280
     0
102
RTVSPost2010PropOp28
 70
     1
102
RTVSPost2010Prop29
280
     1
102
RTVSPost2010PropOp29
 70
     1
102
RTVSPost2010Prop30
280
     1
102
RTVSPost2010PropOp30
 70
     1
102
RTVSPost2010Prop31
280
     0
102
RTVSPost2010PropOp31
 70
     1
102
RTVSPost2010Prop32
280
     0
102
RTVSPost2010PropOp32
 70
     1
102
RTVSPost2010Prop33
280
     0
102
RTVSPost2010PropOp33
 70
     1
102
RTVSPost2010Prop34
280
     0
102
RTVSPost2010PropOp34
 70
     1
102
RTVSPost2010Prop35
280
     0
102
RTVSPost2010PropOp35
 70
     1
102
RTVSPost2010Prop36
280
     0
102
RTVSPost2010PropOp36
 70
     1
102
RTVSPost2010Prop37
 90
       50
102
RTVSPost2010PropOp37
 70
     1
102
RTVSPost2010Prop38
140
0.0
102
RTVSPost2010PropOp38
 70
     1
102
RTVSPost2010Prop39
140
1.0
102
RTVSPost2010PropOp39
 70
     1
102
RTVSPost2010Prop40
 90
        0
102
RTVSPost2010PropOp40
 70
     1
102
RTVSPost2010Prop41ColorIndex
 90
       18
102
RTVSPost2010Prop41ColorRGB
 90
        0
102
RTVSPost2010PropOp41
 70
     1
102
RTVSPost2010Prop42
 90
       50
102
RTVSPost2010PropOp42
 70
     1
102
RTVSPost2010Prop43
 90
        3
102
RTVSPost2010PropOp43
 70
     1
102
RTVSPost2010Prop44ColorIndex
 90
        5
102
RTVSPost2010Prop44ColorRGB
 90
      255
102
RTVSPost2010PropOp44
 70
     1
102
RTVSPost2010Prop45
280
     0
102
RTVSPost2010PropOp45
 70
     1
102
RTVSPost2010Prop46
 90
       50
102
RTVSPost2010PropOp46
 70
     1
102
RTVSPost2010Prop47
 90
       50
102
RTVSPost2010PropOp47
 70
     1
102
RTVSPost2010Prop48
 90
       50
102
RTVSPost2010PropOp48
 70
     1
102
RTVSPost2010Prop49
280
     0
102
RTVSPost2010PropOp49
 70
     1
102
RTVSPost2010Prop50
 90
       50
102
RTVSPost2010PropOp50
 70
     1
102
RTVSPost2010Prop51ColorIndex
 90
      256
102
RTVSPost2010Prop51ColorRGB
 90
-16777216
102
RTVSPost2010PropOp51
 70
     0
102
RTVSPost2010Prop52
140
1.0
102
RTVSPost2010PropOp52
 70
     0
102
RTVSPost2010Prop53
 90
        2
102
RTVSPost2010PropOp53
 70
     1
102
RTVSPost2010Prop54
  1
strokes_ogs.tif
102
RTVSPost2010PropOp54
 70
     1
102
RTVSPost2010Prop55
280
     0
102
RTVSPost2010PropOp55
 70
     1
102
RTVSPost2010Prop56
140
1.0
102
RTVSPost2010PropOp56
 70
     1
102
RTVSPost2010Prop57
140
1.0
102
RTVSPost2010PropOp57
 70
     1
102
RTVSPropertyOp0
 70
     1
102
RTVSPropertyOp1
 70
     1
102
RTVSPropertyOp2
 70
     1
102
RTVSPropertyOp3
 70
     1
102
RTVSPropertyOp4
 70
     1
102
RTVSPropertyOp5
 70
     1
102
RTVSPropertyOp6
 70
     1
102
RTVSPropertyOp7
 70
     1
102
RTVSPropertyOp8
 70
     1
102
RTVSPropertyOp9
 70
     1
102
RTVSPropertyOp10
 70
     1
102
RTVSPropertyOp11
 70
     1
102
RTVSPropertyOp12
 70
     1
102
RTVSPropertyOp13
 70
     1
102
RTVSPropertyOp14
 70
     1
102
RTVSPropertyOp15
 70
     1
102
RTVSPropertyOp16
 70
     1
102
RTVSPropertyOp17
 70
     1
102
RTVSPropertyOp18
 70
     1
102
RTVSPropertyOp19
 70
     1
102
RTVSPropertyOp20
 70
     1
102
RTVSPropertyOp21
 70
     1
102
RTVSPropertyOp22
 70
     1
102
RTVSPropertyOp23
 70
     1
102
RTVSPropertyOp24
 70
     1
102
RTVSPropertyOp25
 70
     1
102
RTVSPropertyOp26
 70
     1
102
RTVSPropertyOp27
 70
     1
102
RTVSPropertyOp28
 70
     1
102
RTVSPropertyOp29
 70
     1
102
RTVSPropertyOp30
 70
     1
102
RTVSPropertyOp31
 70
     1
102
RTVSPropertyOp32
 70
     1
102
RTVSPropertyOp33
 70
     1
102
RTVSPropertyOp34
 70
     1
102
RTVSPropertyOp35
 70
     1
102
RTVSPropertyOp36
 70
     1
102
RTVSPropertyOp37
 70
     1
102
RTVSPropertyOp38
 70
     1
102
RTVSPropertyOp39
 70
     1
102
RTVSPropertyOp40
 70
     1
102
RTVSPropertyOp41
 70
     1
102
RTVSPropertyOp42
 70
     1
102
RTVSPropertyOp43
 70
     1
102
RTVSPropertyOp44
 70
     1
102
RTVSPropertyOp45
 70
     1
102
RTVSPropertyOp46
 70
     1
102
RTVSPropertyOp47
 70
     1
102
RTVSPropertyOp48
 70
     1
102
RTVSPropertyOp49
 70
     1
102
RTVSPropertyOp50
 70
     1
102
RTVSPropertyOp51
 70
     0
102
RTVSPropertyOp52
 70
     0
102
RTVSPropertyOp53
 70
     1
102
RTVSPropertyOp54
 70
     1
102
RTVSPropertyOp55
 70
     1
102
RTVSPropertyOp56
 70
     1
102
RTVSPropertyOp57
 70
     1
102
RTVSPropertyOp58
 70
     1
102
RTVSPropertyOp59
 70
     1
102
RTVSPropertyOp60
 70
     1
102
RTVSPropertyOp61
 70
     1
102
RTVSPropertyOp62
 70
     1
  0
XRECORD
  5
BF7
102
{ACAD_REACTORS
330
BF6
102
}
330
BF6
100
AcDbXrecord
280
     1
102
RTVSPost2010Prop28
280
     0
102
RTVSPost2010PropOp28
 70
     0
102
RTVSPost2010Prop29
280
     1
102
RTVSPost2010PropOp29
 70
     0
102
RTVSPost2010Prop30
280
     1
102
RTVSPost2010PropOp30
 70
     0
102
RTVSPost2010Prop31
280
     0
102
RTVSPost2010PropOp31
 70
     0
102
RTVSPost2010Prop32
280
     0
102
RTVSPost2010PropOp32
 70
     0
102
RTVSPost2010Prop33
280
     0
102
RTVSPost2010PropOp33
 70
     0
102
RTVSPost2010Prop34
280
     0
102
RTVSPost2010PropOp34
 70
     0
102
RTVSPost2010Prop35
280
     0
102
RTVSPost2010PropOp35
 70
     0
102
RTVSPost2010Prop36
280
     0
102
RTVSPost2010PropOp36
 70
     0
102
RTVSPost2010Prop37
 90
       50
102
RTVSPost2010PropOp37
 70
     0
102
RTVSPost2010Prop38
140
0.0
102
RTVSPost2010PropOp38
 70
     0
102
RTVSPost2010Prop39
140
1.0
102
RTVSPost2010PropOp39
 70
     0
102
RTVSPost2010Prop40
 90
        0
102
RTVSPost2010PropOp40
 70
     0
102
RTVSPost2010Prop41ColorIndex
 90
       18
102
RTVSPost2010Prop41ColorRGB
 90
        0
102
RTVSPost2010PropOp41
 70
     0
102
RTVSPost2010Prop42
 90
       50
102
RTVSPost2010PropOp42
 70
     0
102
RTVSPost2010Prop43
 90
        3
102
RTVSPost2010PropOp43
 70
     0
102
RTVSPost2010Prop44ColorIndex
 90
        5
102
RTVSPost2010Prop44ColorRGB
 90
      255
102
RTVSPost2010PropOp44
 70
     0
102
RTVSPost2010Prop45
280
     0
102
RTVSPost2010PropOp45
 70
     0
102
RTVSPost2010Prop46
 90
       50
102
RTVSPost2010PropOp46
 70
     0
102
RTVSPost2010Prop47
 90
       50
102
RTVSPost2010PropOp47
 70
     0
102
RTVSPost2010Prop48
 90
       50
102
RTVSPost2010PropOp48
 70
     0
102
RTVSPost2010Prop49
280
     0
102
RTVSPost2010PropOp49
 70
     0
102
RTVSPost2010Prop50
 90
       50
102
RTVSPost2010PropOp50
 70
     0
102
RTVSPost2010Prop51ColorIndex
 90
      256
102
RTVSPost2010Prop51ColorRGB
 90
-16777216
102
RTVSPost2010PropOp51
 70
     0
102
RTVSPost2010Prop52
140
1.0
102
RTVSPost2010PropOp52
 70
     0
102
RTVSPost2010Prop53
 90
        2
102
RTVSPost2010PropOp53
 70
     0
102
RTVSPost2010Prop54
  1
strokes_ogs.tif
102
RTVSPost2010PropOp54
 70
     0
102
RTVSPost2010Prop55
280
     0
102
RTVSPost2010PropOp55
 70
     0
102
RTVSPost2010Prop56
140
1.0
102
RTVSPost2010PropOp56
 70
     0
102
RTVSPost2010Prop57
140
1.0
102
RTVSPost2010PropOp57
 70
     0
102
RTVSPropertyOp0
 70
     0
102
RTVSPropertyOp1
 70
     0
102
RTVSPropertyOp2
 70
     0
102
RTVSPropertyOp3
 70
     0
102
RTVSPropertyOp4
 70
     0
102
RTVSPropertyOp5
 70
     0
102
RTVSPropertyOp6
 70
     0
102
RTVSPropertyOp7
 70
     0
102
RTVSPropertyOp8
 70
     0
102
RTVSPropertyOp9
 70
     0
102
RTVSPropertyOp10
 70
     0
102
RTVSPropertyOp11
 70
     0
102
RTVSPropertyOp12
 70
     0
102
RTVSPropertyOp13
 70
     0
102
RTVSPropertyOp14
 70
     2
102
RTVSPropertyOp15
 70
     0
102
RTVSPropertyOp16
 70
     0
102
RTVSPropertyOp17
 70
     0
102
RTVSPropertyOp18
 70
     0
102
RTVSPropertyOp19
 70
     0
102
RTVSPropertyOp20
 70
     0
102
RTVSPropertyOp21
 70
     0
102
RTVSPropertyOp22
 70
     0
102
RTVSPropertyOp23
 70
     0
102
RTVSPropertyOp24
 70
     0
102
RTVSPropertyOp25
 70
     0
102
RTVSPropertyOp26
 70
     0
102
RTVSPropertyOp27
 70
     0
102
RTVSPropertyOp28
 70
     0
102
RTVSPropertyOp29
 70
     0
102
RTVSPropertyOp30
 70
     0
102
RTVSPropertyOp31
 70
     0
102
RTVSPropertyOp32
 70
     0
102
RTVSPropertyOp33
 70
     0
102
RTVSPropertyOp34
 70
     0
102
RTVSPropertyOp35
 70
     0
102
RTVSPropertyOp36
 70
     0
102
RTVSPropertyOp37
 70
     0
102
RTVSPropertyOp38
 70
     0
102
RTVSPropertyOp39
 70
     0
102
RTVSPropertyOp40
 70
     0
102
RTVSPropertyOp41
 70
     0
102
RTVSPropertyOp42
 70
     0
102
RTVSPropertyOp43
 70
     0
102
RTVSPropertyOp44
 70
     0
102
RTVSPropertyOp45
 70
     0
102
RTVSPropertyOp46
 70
     0
102
RTVSPropertyOp47
 70
     0
102
RTVSPropertyOp48
 70
     0
102
RTVSPropertyOp49
 70
     0
102
RTVSPropertyOp50
 70
     0
102
RTVSPropertyOp51
 70
     0
102
RTVSPropertyOp52
 70
     0
102
RTVSPropertyOp53
 70
     0
102
RTVSPropertyOp54
 70
     0
102
RTVSPropertyOp55
 70
     0
102
RTVSPropertyOp56
 70
     0
102
RTVSPropertyOp57
 70
     0
102
RTVSPropertyOp58
 70
     0
102
RTVSPropertyOp59
 70
     0
102
RTVSPropertyOp60
 70
     0
102
RTVSPropertyOp61
 70
     0
102
RTVSPropertyOp62
 70
     0
  0
XRECORD
  5
BE5
102
{ACAD_REACTORS
330
BE4
102
}
330
BE4
100
AcDbXrecord
280
     1
102
RTVSPost2010Prop28
280
     0
102
RTVSPost2010PropOp28
 70
     1
102
RTVSPost2010Prop29
280
     1
102
RTVSPost2010PropOp29
 70
     1
102
RTVSPost2010Prop30
280
     1
102
RTVSPost2010PropOp30
 70
     1
102
RTVSPost2010Prop31
280
     0
102
RTVSPost2010PropOp31
 70
     1
102
RTVSPost2010Prop32
280
     0
102
RTVSPost2010PropOp32
 70
     1
102
RTVSPost2010Prop33
280
     0
102
RTVSPost2010PropOp33
 70
     1
102
RTVSPost2010Prop34
280
     0
102
RTVSPost2010PropOp34
 70
     1
102
RTVSPost2010Prop35
280
     0
102
RTVSPost2010PropOp35
 70
     1
102
RTVSPost2010Prop36
280
     0
102
RTVSPost2010PropOp36
 70
     1
102
RTVSPost2010Prop37
 90
       50
102
RTVSPost2010PropOp37
 70
     1
102
RTVSPost2010Prop38
140
0.0
102
RTVSPost2010PropOp38
 70
     1
102
RTVSPost2010Prop39
140
1.0
102
RTVSPost2010PropOp39
 70
     1
102
RTVSPost2010Prop40
 90
        0
102
RTVSPost2010PropOp40
 70
     1
102
RTVSPost2010Prop41ColorIndex
 90
       18
102
RTVSPost2010Prop41ColorRGB
 90
        0
102
RTVSPost2010PropOp41
 70
     1
102
RTVSPost2010Prop42
 90
       50
102
RTVSPost2010PropOp42
 70
     1
102
RTVSPost2010Prop43
 90
        3
102
RTVSPost2010PropOp43
 70
     1
102
RTVSPost2010Prop44ColorIndex
 90
        5
102
RTVSPost2010Prop44ColorRGB
 90
      255
102
RTVSPost2010PropOp44
 70
     1
102
RTVSPost2010Prop45
280
     0
102
RTVSPost2010PropOp45
 70
     1
102
RTVSPost2010Prop46
 90
       50
102
RTVSPost2010PropOp46
 70
     1
102
RTVSPost2010Prop47
 90
       50
102
RTVSPost2010PropOp47
 70
     1
102
RTVSPost2010Prop48
 90
       50
102
RTVSPost2010PropOp48
 70
     1
102
RTVSPost2010Prop49
280
     0
102
RTVSPost2010PropOp49
 70
     1
102
RTVSPost2010Prop50
 90
       50
102
RTVSPost2010PropOp50
 70
     1
102
RTVSPost2010Prop51ColorIndex
 90
      256
102
RTVSPost2010Prop51ColorRGB
 90
-16777216
102
RTVSPost2010PropOp51
 70
     0
102
RTVSPost2010Prop52
140
1.0
102
RTVSPost2010PropOp52
 70
     0
102
RTVSPost2010Prop53
 90
        2
102
RTVSPost2010PropOp53
 70
     1
102
RTVSPost2010Prop54
  1
strokes_ogs.tif
102
RTVSPost2010PropOp54
 70
     1
102
RTVSPost2010Prop55
280
     0
102
RTVSPost2010PropOp55
 70
     1
102
RTVSPost2010Prop56
140
1.0
102
RTVSPost2010PropOp56
 70
     1
102
RTVSPost2010Prop57
140
1.0
102
RTVSPost2010PropOp57
 70
     1
102
RTVSPropertyOp0
 70
     1
102
RTVSPropertyOp1
 70
     1
102
RTVSPropertyOp2
 70
     1
102
RTVSPropertyOp3
 70
     1
102
RTVSPropertyOp4
 70
     1
102
RTVSPropertyOp5
 70
     1
102
RTVSPropertyOp6
 70
     1
102
RTVSPropertyOp7
 70
     1
102
RTVSPropertyOp8
 70
     1
102
RTVSPropertyOp9
 70
     1
102
RTVSPropertyOp10
 70
     1
102
RTVSPropertyOp11
 70
     1
102
RTVSPropertyOp12
 70
     1
102
RTVSPropertyOp13
 70
     1
102
RTVSPropertyOp14
 70
     1
102
RTVSPropertyOp15
 70
     1
102
RTVSPropertyOp16
 70
     1
102
RTVSPropertyOp17
 70
     1
102
RTVSPropertyOp18
 70
     1
102
RTVSPropertyOp19
 70
     1
102
RTVSPropertyOp20
 70
     1
102
RTVSPropertyOp21
 70
     1
102
RTVSPropertyOp22
 70
     1
102
RTVSPropertyOp23
 70
     1
102
RTVSPropertyOp24
 70
     1
102
RTVSPropertyOp25
 70
     1
102
RTVSPropertyOp26
 70
     1
102
RTVSPropertyOp27
 70
     1
102
RTVSPropertyOp28
 70
     1
102
RTVSPropertyOp29
 70
     1
102
RTVSPropertyOp30
 70
     1
102
RTVSPropertyOp31
 70
     1
102
RTVSPropertyOp32
 70
     1
102
RTVSPropertyOp33
 70
     1
102
RTVSPropertyOp34
 70
     1
102
RTVSPropertyOp35
 70
     1
102
RTVSPropertyOp36
 70
     1
102
RTVSPropertyOp37
 70
     1
102
RTVSPropertyOp38
 70
     1
102
RTVSPropertyOp39
 70
     1
102
RTVSPropertyOp40
 70
     1
102
RTVSPropertyOp41
 70
     1
102
RTVSPropertyOp42
 70
     1
102
RTVSPropertyOp43
 70
     1
102
RTVSPropertyOp44
 70
     1
102
RTVSPropertyOp45
 70
     1
102
RTVSPropertyOp46
 70
     1
102
RTVSPropertyOp47
 70
     1
102
RTVSPropertyOp48
 70
     1
102
RTVSPropertyOp49
 70
     1
102
RTVSPropertyOp50
 70
     1
102
RTVSPropertyOp51
 70
     0
102
RTVSPropertyOp52
 70
     0
102
RTVSPropertyOp53
 70
     1
102
RTVSPropertyOp54
 70
     1
102
RTVSPropertyOp55
 70
     1
102
RTVSPropertyOp56
 70
     1
102
RTVSPropertyOp57
 70
     1
102
RTVSPropertyOp58
 70
     1
102
RTVSPropertyOp59
 70
     1
102
RTVSPropertyOp60
 70
     1
102
RTVSPropertyOp61
 70
     1
102
RTVSPropertyOp62
 70
     1
  0
XRECORD
  5
BC9
102
{ACAD_REACTORS
330
BC8
102
}
330
BC8
100
AcDbXrecord
280
     1
102
RTVSPost2010Prop28
280
     0
102
RTVSPost2010PropOp28
 70
     1
102
RTVSPost2010Prop29
280
     1
102
RTVSPost2010PropOp29
 70
     1
102
RTVSPost2010Prop30
280
     1
102
RTVSPost2010PropOp30
 70
     1
102
RTVSPost2010Prop31
280
     0
102
RTVSPost2010PropOp31
 70
     1
102
RTVSPost2010Prop32
280
     0
102
RTVSPost2010PropOp32
 70
     1
102
RTVSPost2010Prop33
280
     0
102
RTVSPost2010PropOp33
 70
     1
102
RTVSPost2010Prop34
280
     0
102
RTVSPost2010PropOp34
 70
     1
102
RTVSPost2010Prop35
280
     0
102
RTVSPost2010PropOp35
 70
     1
102
RTVSPost2010Prop36
280
     0
102
RTVSPost2010PropOp36
 70
     1
102
RTVSPost2010Prop37
 90
       50
102
RTVSPost2010PropOp37
 70
     1
102
RTVSPost2010Prop38
140
0.0
102
RTVSPost2010PropOp38
 70
     1
102
RTVSPost2010Prop39
140
1.0
102
RTVSPost2010PropOp39
 70
     1
102
RTVSPost2010Prop40
 90
        0
102
RTVSPost2010PropOp40
 70
     1
102
RTVSPost2010Prop41ColorIndex
 90
       18
102
RTVSPost2010Prop41ColorRGB
 90
        0
102
RTVSPost2010PropOp41
 70
     1
102
RTVSPost2010Prop42
 90
       50
102
RTVSPost2010PropOp42
 70
     1
102
RTVSPost2010Prop43
 90
        3
102
RTVSPost2010PropOp43
 70
     1
102
RTVSPost2010Prop44ColorIndex
 90
        5
102
RTVSPost2010Prop44ColorRGB
 90
      255
102
RTVSPost2010PropOp44
 70
     1
102
RTVSPost2010Prop45
280
     0
102
RTVSPost2010PropOp45
 70
     1
102
RTVSPost2010Prop46
 90
       50
102
RTVSPost2010PropOp46
 70
     1
102
RTVSPost2010Prop47
 90
       50
102
RTVSPost2010PropOp47
 70
     1
102
RTVSPost2010Prop48
 90
       50
102
RTVSPost2010PropOp48
 70
     1
102
RTVSPost2010Prop49
280
     0
102
RTVSPost2010PropOp49
 70
     1
102
RTVSPost2010Prop50
 90
       50
102
RTVSPost2010PropOp50
 70
     1
102
RTVSPost2010Prop51ColorIndex
 90
      256
102
RTVSPost2010Prop51ColorRGB
 90
-16777216
102
RTVSPost2010PropOp51
 70
     0
102
RTVSPost2010Prop52
140
1.0
102
RTVSPost2010PropOp52
 70
     0
102
RTVSPost2010Prop53
 90
        2
102
RTVSPost2010PropOp53
 70
     1
102
RTVSPost2010Prop54
  1
strokes_ogs.tif
102
RTVSPost2010PropOp54
 70
     1
102
RTVSPost2010Prop55
280
     0
102
RTVSPost2010PropOp55
 70
     1
102
RTVSPost2010Prop56
140
1.0
102
RTVSPost2010PropOp56
 70
     1
102
RTVSPost2010Prop57
140
1.0
102
RTVSPost2010PropOp57
 70
     1
102
RTVSPropertyOp0
 70
     1
102
RTVSPropertyOp1
 70
     1
102
RTVSPropertyOp2
 70
     1
102
RTVSPropertyOp3
 70
     1
102
RTVSPropertyOp4
 70
     1
102
RTVSPropertyOp5
 70
     1
102
RTVSPropertyOp6
 70
     1
102
RTVSPropertyOp7
 70
     1
102
RTVSPropertyOp8
 70
     1
102
RTVSPropertyOp9
 70
     1
102
RTVSPropertyOp10
 70
     1
102
RTVSPropertyOp11
 70
     1
102
RTVSPropertyOp12
 70
     1
102
RTVSPropertyOp13
 70
     1
102
RTVSPropertyOp14
 70
     1
102
RTVSPropertyOp15
 70
     1
102
RTVSPropertyOp16
 70
     1
102
RTVSPropertyOp17
 70
     1
102
RTVSPropertyOp18
 70
     1
102
RTVSPropertyOp19
 70
     1
102
RTVSPropertyOp20
 70
     1
102
RTVSPropertyOp21
 70
     1
102
RTVSPropertyOp22
 70
     1
102
RTVSPropertyOp23
 70
     1
102
RTVSPropertyOp24
 70
     1
102
RTVSPropertyOp25
 70
     1
102
RTVSPropertyOp26
 70
     1
102
RTVSPropertyOp27
 70
     1
102
RTVSPropertyOp28
 70
     1
102
RTVSPropertyOp29
 70
     1
102
RTVSPropertyOp30
 70
     1
102
RTVSPropertyOp31
 70
     1
102
RTVSPropertyOp32
 70
     1
102
RTVSPropertyOp33
 70
     1
102
RTVSPropertyOp34
 70
     1
102
RTVSPropertyOp35
 70
     1
102
RTVSPropertyOp36
 70
     1
102
RTVSPropertyOp37
 70
     1
102
RTVSPropertyOp38
 70
     1
102
RTVSPropertyOp39
 70
     1
102
RTVSPropertyOp40
 70
     1
102
RTVSPropertyOp41
 70
     1
102
RTVSPropertyOp42
 70
     1
102
RTVSPropertyOp43
 70
     1
102
RTVSPropertyOp44
 70
     1
102
RTVSPropertyOp45
 70
     1
102
RTVSPropertyOp46
 70
     1
102
RTVSPropertyOp47
 70
     1
102
RTVSPropertyOp48
 70
     1
102
RTVSPropertyOp49
 70
     1
102
RTVSPropertyOp50
 70
     1
102
RTVSPropertyOp51
 70
     0
102
RTVSPropertyOp52
 70
     0
102
RTVSPropertyOp53
 70
     1
102
RTVSPropertyOp54
 70
     1
102
RTVSPropertyOp55
 70
     1
102
RTVSPropertyOp56
 70
     1
102
RTVSPropertyOp57
 70
     1
102
RTVSPropertyOp58
 70
     1
102
RTVSPropertyOp59
 70
     1
102
RTVSPropertyOp60
 70
     1
102
RTVSPropertyOp61
 70
     1
102
RTVSPropertyOp62
 70
     1
  0
XRECORD
  5
BCB
102
{ACAD_REACTORS
330
BCA
102
}
330
BCA
100
AcDbXrecord
280
     1
102
RTVSPost2010Prop28
280
     0
102
RTVSPost2010PropOp28
 70
     1
102
RTVSPost2010Prop29
280
     1
102
RTVSPost2010PropOp29
 70
     1
102
RTVSPost2010Prop30
280
     1
102
RTVSPost2010PropOp30
 70
     1
102
RTVSPost2010Prop31
280
     0
102
RTVSPost2010PropOp31
 70
     1
102
RTVSPost2010Prop32
280
     0
102
RTVSPost2010PropOp32
 70
     1
102
RTVSPost2010Prop33
280
     0
102
RTVSPost2010PropOp33
 70
     1
102
RTVSPost2010Prop34
280
     0
102
RTVSPost2010PropOp34
 70
     1
102
RTVSPost2010Prop35
280
     0
102
RTVSPost2010PropOp35
 70
     1
102
RTVSPost2010Prop36
280
     0
102
RTVSPost2010PropOp36
 70
     1
102
RTVSPost2010Prop37
 90
       50
102
RTVSPost2010PropOp37
 70
     1
102
RTVSPost2010Prop38
140
0.0
102
RTVSPost2010PropOp38
 70
     1
102
RTVSPost2010Prop39
140
1.0
102
RTVSPost2010PropOp39
 70
     1
102
RTVSPost2010Prop40
 90
        0
102
RTVSPost2010PropOp40
 70
     1
102
RTVSPost2010Prop41ColorIndex
 90
       18
102
RTVSPost2010Prop41ColorRGB
 90
        0
102
RTVSPost2010PropOp41
 70
     1
102
RTVSPost2010Prop42
 90
       50
102
RTVSPost2010PropOp42
 70
     1
102
RTVSPost2010Prop43
 90
        3
102
RTVSPost2010PropOp43
 70
     1
102
RTVSPost2010Prop44ColorIndex
 90
        5
102
RTVSPost2010Prop44ColorRGB
 90
      255
102
RTVSPost2010PropOp44
 70
     1
102
RTVSPost2010Prop45
280
     0
102
RTVSPost2010PropOp45
 70
     1
102
RTVSPost2010Prop46
 90
       50
102
RTVSPost2010PropOp46
 70
     1
102
RTVSPost2010Prop47
 90
       50
102
RTVSPost2010PropOp47
 70
     1
102
RTVSPost2010Prop48
 90
       50
102
RTVSPost2010PropOp48
 70
     1
102
RTVSPost2010Prop49
280
     0
102
RTVSPost2010PropOp49
 70
     1
102
RTVSPost2010Prop50
 90
       50
102
RTVSPost2010PropOp50
 70
     1
102
RTVSPost2010Prop51ColorIndex
 90
      256
102
RTVSPost2010Prop51ColorRGB
 90
-16777216
102
RTVSPost2010PropOp51
 70
     0
102
RTVSPost2010Prop52
140
1.0
102
RTVSPost2010PropOp52
 70
     0
102
RTVSPost2010Prop53
 90
        2
102
RTVSPost2010PropOp53
 70
     1
102
RTVSPost2010Prop54
  1
strokes_ogs.tif
102
RTVSPost2010PropOp54
 70
     1
102
RTVSPost2010Prop55
280
     0
102
RTVSPost2010PropOp55
 70
     1
102
RTVSPost2010Prop56
140
1.0
102
RTVSPost2010PropOp56
 70
     1
102
RTVSPost2010Prop57
140
1.0
102
RTVSPost2010PropOp57
 70
     1
102
RTVSPropertyOp0
 70
     1
102
RTVSPropertyOp1
 70
     1
102
RTVSPropertyOp2
 70
     1
102
RTVSPropertyOp3
 70
     1
102
RTVSPropertyOp4
 70
     1
102
RTVSPropertyOp5
 70
     1
102
RTVSPropertyOp6
 70
     1
102
RTVSPropertyOp7
 70
     1
102
RTVSPropertyOp8
 70
     1
102
RTVSPropertyOp9
 70
     1
102
RTVSPropertyOp10
 70
     1
102
RTVSPropertyOp11
 70
     1
102
RTVSPropertyOp12
 70
     1
102
RTVSPropertyOp13
 70
     1
102
RTVSPropertyOp14
 70
     1
102
RTVSPropertyOp15
 70
     1
102
RTVSPropertyOp16
 70
     1
102
RTVSPropertyOp17
 70
     1
102
RTVSPropertyOp18
 70
     1
102
RTVSPropertyOp19
 70
     1
102
RTVSPropertyOp20
 70
     1
102
RTVSPropertyOp21
 70
     1
102
RTVSPropertyOp22
 70
     1
102
RTVSPropertyOp23
 70
     1
102
RTVSPropertyOp24
 70
     1
102
RTVSPropertyOp25
 70
     1
102
RTVSPropertyOp26
 70
     1
102
RTVSPropertyOp27
 70
     1
102
RTVSPropertyOp28
 70
     1
102
RTVSPropertyOp29
 70
     1
102
RTVSPropertyOp30
 70
     1
102
RTVSPropertyOp31
 70
     1
102
RTVSPropertyOp32
 70
     1
102
RTVSPropertyOp33
 70
     1
102
RTVSPropertyOp34
 70
     1
102
RTVSPropertyOp35
 70
     1
102
RTVSPropertyOp36
 70
     1
102
RTVSPropertyOp37
 70
     1
102
RTVSPropertyOp38
 70
     1
102
RTVSPropertyOp39
 70
     1
102
RTVSPropertyOp40
 70
     1
102
RTVSPropertyOp41
 70
     1
102
RTVSPropertyOp42
 70
     1
102
RTVSPropertyOp43
 70
     1
102
RTVSPropertyOp44
 70
     1
102
RTVSPropertyOp45
 70
     1
102
RTVSPropertyOp46
 70
     1
102
RTVSPropertyOp47
 70
     1
102
RTVSPropertyOp48
 70
     1
102
RTVSPropertyOp49
 70
     1
102
RTVSPropertyOp50
 70
     1
102
RTVSPropertyOp51
 70
     0
102
RTVSPropertyOp52
 70
     0
102
RTVSPropertyOp53
 70
     1
102
RTVSPropertyOp54
 70
     1
102
RTVSPropertyOp55
 70
     1
102
RTVSPropertyOp56
 70
     1
102
RTVSPropertyOp57
 70
     1
102
RTVSPropertyOp58
 70
     1
102
RTVSPropertyOp59
 70
     1
102
RTVSPropertyOp60
 70
     1
102
RTVSPropertyOp61
 70
     1
102
RTVSPropertyOp62
 70
     1
  0
XRECORD
  5
BCD
102
{ACAD_REACTORS
330
BCC
102
}
330
BCC
100
AcDbXrecord
280
     1
102
RTVSPost2010Prop28
280
     0
102
RTVSPost2010PropOp28
 70
     1
102
RTVSPost2010Prop29
280
     1
102
RTVSPost2010PropOp29
 70
     1
102
RTVSPost2010Prop30
280
     1
102
RTVSPost2010PropOp30
 70
     1
102
RTVSPost2010Prop31
280
     0
102
RTVSPost2010PropOp31
 70
     1
102
RTVSPost2010Prop32
280
     0
102
RTVSPost2010PropOp32
 70
     1
102
RTVSPost2010Prop33
280
     0
102
RTVSPost2010PropOp33
 70
     1
102
RTVSPost2010Prop34
280
     0
102
RTVSPost2010PropOp34
 70
     1
102
RTVSPost2010Prop35
280
     0
102
RTVSPost2010PropOp35
 70
     1
102
RTVSPost2010Prop36
280
     0
102
RTVSPost2010PropOp36
 70
     1
102
RTVSPost2010Prop37
 90
       50
102
RTVSPost2010PropOp37
 70
     1
102
RTVSPost2010Prop38
140
0.0
102
RTVSPost2010PropOp38
 70
     1
102
RTVSPost2010Prop39
140
1.0
102
RTVSPost2010PropOp39
 70
     1
102
RTVSPost2010Prop40
 90
        0
102
RTVSPost2010PropOp40
 70
     1
102
RTVSPost2010Prop41ColorIndex
 90
       18
102
RTVSPost2010Prop41ColorRGB
 90
        0
102
RTVSPost2010PropOp41
 70
     1
102
RTVSPost2010Prop42
 90
       50
102
RTVSPost2010PropOp42
 70
     1
102
RTVSPost2010Prop43
 90
        3
102
RTVSPost2010PropOp43
 70
     1
102
RTVSPost2010Prop44ColorIndex
 90
        5
102
RTVSPost2010Prop44ColorRGB
 90
      255
102
RTVSPost2010PropOp44
 70
     1
102
RTVSPost2010Prop45
280
     0
102
RTVSPost2010PropOp45
 70
     1
102
RTVSPost2010Prop46
 90
       50
102
RTVSPost2010PropOp46
 70
     1
102
RTVSPost2010Prop47
 90
       50
102
RTVSPost2010PropOp47
 70
     1
102
RTVSPost2010Prop48
 90
       50
102
RTVSPost2010PropOp48
 70
     1
102
RTVSPost2010Prop49
280
     0
102
RTVSPost2010PropOp49
 70
     1
102
RTVSPost2010Prop50
 90
       50
102
RTVSPost2010PropOp50
 70
     1
102
RTVSPost2010Prop51ColorIndex
 90
      256
102
RTVSPost2010Prop51ColorRGB
 90
-16777216
102
RTVSPost2010PropOp51
 70
     0
102
RTVSPost2010Prop52
140
1.0
102
RTVSPost2010PropOp52
 70
     0
102
RTVSPost2010Prop53
 90
        2
102
RTVSPost2010PropOp53
 70
     1
102
RTVSPost2010Prop54
  1
strokes_ogs.tif
102
RTVSPost2010PropOp54
 70
     1
102
RTVSPost2010Prop55
280
     0
102
RTVSPost2010PropOp55
 70
     1
102
RTVSPost2010Prop56
140
1.0
102
RTVSPost2010PropOp56
 70
     1
102
RTVSPost2010Prop57
140
1.0
102
RTVSPost2010PropOp57
 70
     1
102
RTVSPropertyOp0
 70
     1
102
RTVSPropertyOp1
 70
     1
102
RTVSPropertyOp2
 70
     1
102
RTVSPropertyOp3
 70
     1
102
RTVSPropertyOp4
 70
     1
102
RTVSPropertyOp5
 70
     1
102
RTVSPropertyOp6
 70
     1
102
RTVSPropertyOp7
 70
     1
102
RTVSPropertyOp8
 70
     1
102
RTVSPropertyOp9
 70
     1
102
RTVSPropertyOp10
 70
     1
102
RTVSPropertyOp11
 70
     1
102
RTVSPropertyOp12
 70
     1
102
RTVSPropertyOp13
 70
     1
102
RTVSPropertyOp14
 70
     1
102
RTVSPropertyOp15
 70
     1
102
RTVSPropertyOp16
 70
     1
102
RTVSPropertyOp17
 70
     1
102
RTVSPropertyOp18
 70
     1
102
RTVSPropertyOp19
 70
     1
102
RTVSPropertyOp20
 70
     1
102
RTVSPropertyOp21
 70
     1
102
RTVSPropertyOp22
 70
     1
102
RTVSPropertyOp23
 70
     1
102
RTVSPropertyOp24
 70
     1
102
RTVSPropertyOp25
 70
     1
102
RTVSPropertyOp26
 70
     1
102
RTVSPropertyOp27
 70
     1
102
RTVSPropertyOp28
 70
     1
102
RTVSPropertyOp29
 70
     1
102
RTVSPropertyOp30
 70
     1
102
RTVSPropertyOp31
 70
     1
102
RTVSPropertyOp32
 70
     1
102
RTVSPropertyOp33
 70
     1
102
RTVSPropertyOp34
 70
     1
102
RTVSPropertyOp35
 70
     1
102
RTVSPropertyOp36
 70
     1
102
RTVSPropertyOp37
 70
     1
102
RTVSPropertyOp38
 70
     1
102
RTVSPropertyOp39
 70
     1
102
RTVSPropertyOp40
 70
     1
102
RTVSPropertyOp41
 70
     1
102
RTVSPropertyOp42
 70
     1
102
RTVSPropertyOp43
 70
     1
102
RTVSPropertyOp44
 70
     1
102
RTVSPropertyOp45
 70
     1
102
RTVSPropertyOp46
 70
     1
102
RTVSPropertyOp47
 70
     1
102
RTVSPropertyOp48
 70
     1
102
RTVSPropertyOp49
 70
     1
102
RTVSPropertyOp50
 70
     1
102
RTVSPropertyOp51
 70
     0
102
RTVSPropertyOp52
 70
     0
102
RTVSPropertyOp53
 70
     1
102
RTVSPropertyOp54
 70
     1
102
RTVSPropertyOp55
 70
     1
102
RTVSPropertyOp56
 70
     1
102
RTVSPropertyOp57
 70
     1
102
RTVSPropertyOp58
 70
     1
102
RTVSPropertyOp59
 70
     1
102
RTVSPropertyOp60
 70
     1
102
RTVSPropertyOp61
 70
     1
102
RTVSPropertyOp62
 70
     1
  0
XRECORD
  5
BCF
102
{ACAD_REACTORS
330
BCE
102
}
330
BCE
100
AcDbXrecord
280
     1
102
RTVSPost2010Prop28
280
     0
102
RTVSPost2010PropOp28
 70
     1
102
RTVSPost2010Prop29
280
     1
102
RTVSPost2010PropOp29
 70
     1
102
RTVSPost2010Prop30
280
     1
102
RTVSPost2010PropOp30
 70
     1
102
RTVSPost2010Prop31
280
     0
102
RTVSPost2010PropOp31
 70
     1
102
RTVSPost2010Prop32
280
     0
102
RTVSPost2010PropOp32
 70
     1
102
RTVSPost2010Prop33
280
     0
102
RTVSPost2010PropOp33
 70
     1
102
RTVSPost2010Prop34
280
     0
102
RTVSPost2010PropOp34
 70
     1
102
RTVSPost2010Prop35
280
     0
102
RTVSPost2010PropOp35
 70
     1
102
RTVSPost2010Prop36
280
     0
102
RTVSPost2010PropOp36
 70
     1
102
RTVSPost2010Prop37
 90
       50
102
RTVSPost2010PropOp37
 70
     1
102
RTVSPost2010Prop38
140
0.0
102
RTVSPost2010PropOp38
 70
     1
102
RTVSPost2010Prop39
140
1.0
102
RTVSPost2010PropOp39
 70
     1
102
RTVSPost2010Prop40
 90
        0
102
RTVSPost2010PropOp40
 70
     1
102
RTVSPost2010Prop41ColorIndex
 90
       18
102
RTVSPost2010Prop41ColorRGB
 90
        0
102
RTVSPost2010PropOp41
 70
     1
102
RTVSPost2010Prop42
 90
       50
102
RTVSPost2010PropOp42
 70
     1
102
RTVSPost2010Prop43
 90
        3
102
RTVSPost2010PropOp43
 70
     1
102
RTVSPost2010Prop44ColorIndex
 90
        5
102
RTVSPost2010Prop44ColorRGB
 90
      255
102
RTVSPost2010PropOp44
 70
     1
102
RTVSPost2010Prop45
280
     0
102
RTVSPost2010PropOp45
 70
     1
102
RTVSPost2010Prop46
 90
       50
102
RTVSPost2010PropOp46
 70
     1
102
RTVSPost2010Prop47
 90
       50
102
RTVSPost2010PropOp47
 70
     1
102
RTVSPost2010Prop48
 90
       50
102
RTVSPost2010PropOp48
 70
     1
102
RTVSPost2010Prop49
280
     0
102
RTVSPost2010PropOp49
 70
     1
102
RTVSPost2010Prop50
 90
       50
102
RTVSPost2010PropOp50
 70
     1
102
RTVSPost2010Prop51ColorIndex
 90
      256
102
RTVSPost2010Prop51ColorRGB
 90
-16777216
102
RTVSPost2010PropOp51
 70
     0
102
RTVSPost2010Prop52
140
1.0
102
RTVSPost2010PropOp52
 70
     0
102
RTVSPost2010Prop53
 90
        2
102
RTVSPost2010PropOp53
 70
     1
102
RTVSPost2010Prop54
  1
strokes_ogs.tif
102
RTVSPost2010PropOp54
 70
     1
102
RTVSPost2010Prop55
280
     0
102
RTVSPost2010PropOp55
 70
     1
102
RTVSPost2010Prop56
140
1.0
102
RTVSPost2010PropOp56
 70
     1
102
RTVSPost2010Prop57
140
1.0
102
RTVSPost2010PropOp57
 70
     1
102
RTVSPropertyOp0
 70
     1
102
RTVSPropertyOp1
 70
     1
102
RTVSPropertyOp2
 70
     1
102
RTVSPropertyOp3
 70
     1
102
RTVSPropertyOp4
 70
     1
102
RTVSPropertyOp5
 70
     1
102
RTVSPropertyOp6
 70
     1
102
RTVSPropertyOp7
 70
     1
102
RTVSPropertyOp8
 70
     1
102
RTVSPropertyOp9
 70
     1
102
RTVSPropertyOp10
 70
     1
102
RTVSPropertyOp11
 70
     1
102
RTVSPropertyOp12
 70
     1
102
RTVSPropertyOp13
 70
     1
102
RTVSPropertyOp14
 70
     1
102
RTVSPropertyOp15
 70
     1
102
RTVSPropertyOp16
 70
     1
102
RTVSPropertyOp17
 70
     1
102
RTVSPropertyOp18
 70
     1
102
RTVSPropertyOp19
 70
     1
102
RTVSPropertyOp20
 70
     1
102
RTVSPropertyOp21
 70
     1
102
RTVSPropertyOp22
 70
     1
102
RTVSPropertyOp23
 70
     1
102
RTVSPropertyOp24
 70
     1
102
RTVSPropertyOp25
 70
     1
102
RTVSPropertyOp26
 70
     1
102
RTVSPropertyOp27
 70
     1
102
RTVSPropertyOp28
 70
     1
102
RTVSPropertyOp29
 70
     1
102
RTVSPropertyOp30
 70
     1
102
RTVSPropertyOp31
 70
     1
102
RTVSPropertyOp32
 70
     1
102
RTVSPropertyOp33
 70
     1
102
RTVSPropertyOp34
 70
     1
102
RTVSPropertyOp35
 70
     1
102
RTVSPropertyOp36
 70
     1
102
RTVSPropertyOp37
 70
     1
102
RTVSPropertyOp38
 70
     1
102
RTVSPropertyOp39
 70
     1
102
RTVSPropertyOp40
 70
     1
102
RTVSPropertyOp41
 70
     1
102
RTVSPropertyOp42
 70
     1
102
RTVSPropertyOp43
 70
     1
102
RTVSPropertyOp44
 70
     1
102
RTVSPropertyOp45
 70
     1
102
RTVSPropertyOp46
 70
     1
102
RTVSPropertyOp47
 70
     1
102
RTVSPropertyOp48
 70
     1
102
RTVSPropertyOp49
 70
     1
102
RTVSPropertyOp50
 70
     1
102
RTVSPropertyOp51
 70
     0
102
RTVSPropertyOp52
 70
     0
102
RTVSPropertyOp53
 70
     1
102
RTVSPropertyOp54
 70
     1
102
RTVSPropertyOp55
 70
     1
102
RTVSPropertyOp56
 70
     1
102
RTVSPropertyOp57
 70
     1
102
RTVSPropertyOp58
 70
     1
102
RTVSPropertyOp59
 70
     1
102
RTVSPropertyOp60
 70
     1
102
RTVSPropertyOp61
 70
     1
102
RTVSPropertyOp62
 70
     1
  0
XRECORD
  5
BD7
102
{ACAD_REACTORS
330
BD6
102
}
330
BD6
100
AcDbXrecord
280
     1
102
RTVSPost2010Prop28
280
     0
102
RTVSPost2010PropOp28
 70
     1
102
RTVSPost2010Prop29
280
     1
102
RTVSPost2010PropOp29
 70
     1
102
RTVSPost2010Prop30
280
     1
102
RTVSPost2010PropOp30
 70
     1
102
RTVSPost2010Prop31
280
     0
102
RTVSPost2010PropOp31
 70
     1
102
RTVSPost2010Prop32
280
     0
102
RTVSPost2010PropOp32
 70
     1
102
RTVSPost2010Prop33
280
     0
102
RTVSPost2010PropOp33
 70
     1
102
RTVSPost2010Prop34
280
     0
102
RTVSPost2010PropOp34
 70
     1
102
RTVSPost2010Prop35
280
     0
102
RTVSPost2010PropOp35
 70
     1
102
RTVSPost2010Prop36
280
     0
102
RTVSPost2010PropOp36
 70
     1
102
RTVSPost2010Prop37
 90
       50
102
RTVSPost2010PropOp37
 70
     1
102
RTVSPost2010Prop38
140
0.0
102
RTVSPost2010PropOp38
 70
     1
102
RTVSPost2010Prop39
140
1.0
102
RTVSPost2010PropOp39
 70
     1
102
RTVSPost2010Prop40
 90
        0
102
RTVSPost2010PropOp40
 70
     1
102
RTVSPost2010Prop41ColorIndex
 90
       18
102
RTVSPost2010Prop41ColorRGB
 90
        0
102
RTVSPost2010PropOp41
 70
     1
102
RTVSPost2010Prop42
 90
       50
102
RTVSPost2010PropOp42
 70
     1
102
RTVSPost2010Prop43
 90
        3
102
RTVSPost2010PropOp43
 70
     1
102
RTVSPost2010Prop44ColorIndex
 90
        5
102
RTVSPost2010Prop44ColorRGB
 90
      255
102
RTVSPost2010PropOp44
 70
     1
102
RTVSPost2010Prop45
280
     0
102
RTVSPost2010PropOp45
 70
     1
102
RTVSPost2010Prop46
 90
       50
102
RTVSPost2010PropOp46
 70
     1
102
RTVSPost2010Prop47
 90
       50
102
RTVSPost2010PropOp47
 70
     1
102
RTVSPost2010Prop48
 90
       50
102
RTVSPost2010PropOp48
 70
     1
102
RTVSPost2010Prop49
280
     0
102
RTVSPost2010PropOp49
 70
     1
102
RTVSPost2010Prop50
 90
       50
102
RTVSPost2010PropOp50
 70
     1
102
RTVSPost2010Prop51ColorIndex
 90
      256
102
RTVSPost2010Prop51ColorRGB
 90
-16777216
102
RTVSPost2010PropOp51
 70
     0
102
RTVSPost2010Prop52
140
1.0
102
RTVSPost2010PropOp52
 70
     0
102
RTVSPost2010Prop53
 90
        2
102
RTVSPost2010PropOp53
 70
     1
102
RTVSPost2010Prop54
  1
strokes_ogs.tif
102
RTVSPost2010PropOp54
 70
     1
102
RTVSPost2010Prop55
280
     0
102
RTVSPost2010PropOp55
 70
     1
102
RTVSPost2010Prop56
140
1.0
102
RTVSPost2010PropOp56
 70
     1
102
RTVSPost2010Prop57
140
1.0
102
RTVSPost2010PropOp57
 70
     1
102
RTVSPropertyOp0
 70
     1
102
RTVSPropertyOp1
 70
     1
102
RTVSPropertyOp2
 70
     1
102
RTVSPropertyOp3
 70
     1
102
RTVSPropertyOp4
 70
     1
102
RTVSPropertyOp5
 70
     1
102
RTVSPropertyOp6
 70
     1
102
RTVSPropertyOp7
 70
     1
102
RTVSPropertyOp8
 70
     1
102
RTVSPropertyOp9
 70
     1
102
RTVSPropertyOp10
 70
     1
102
RTVSPropertyOp11
 70
     1
102
RTVSPropertyOp12
 70
     1
102
RTVSPropertyOp13
 70
     1
102
RTVSPropertyOp14
 70
     1
102
RTVSPropertyOp15
 70
     1
102
RTVSPropertyOp16
 70
     1
102
RTVSPropertyOp17
 70
     1
102
RTVSPropertyOp18
 70
     1
102
RTVSPropertyOp19
 70
     1
102
RTVSPropertyOp20
 70
     1
102
RTVSPropertyOp21
 70
     1
102
RTVSPropertyOp22
 70
     1
102
RTVSPropertyOp23
 70
     1
102
RTVSPropertyOp24
 70
     1
102
RTVSPropertyOp25
 70
     1
102
RTVSPropertyOp26
 70
     1
102
RTVSPropertyOp27
 70
     1
102
RTVSPropertyOp28
 70
     1
102
RTVSPropertyOp29
 70
     1
102
RTVSPropertyOp30
 70
     1
102
RTVSPropertyOp31
 70
     1
102
RTVSPropertyOp32
 70
     1
102
RTVSPropertyOp33
 70
     1
102
RTVSPropertyOp34
 70
     1
102
RTVSPropertyOp35
 70
     1
102
RTVSPropertyOp36
 70
     1
102
RTVSPropertyOp37
 70
     1
102
RTVSPropertyOp38
 70
     1
102
RTVSPropertyOp39
 70
     1
102
RTVSPropertyOp40
 70
     1
102
RTVSPropertyOp41
 70
     1
102
RTVSPropertyOp42
 70
     1
102
RTVSPropertyOp43
 70
     1
102
RTVSPropertyOp44
 70
     1
102
RTVSPropertyOp45
 70
     1
102
RTVSPropertyOp46
 70
     1
102
RTVSPropertyOp47
 70
     1
102
RTVSPropertyOp48
 70
     1
102
RTVSPropertyOp49
 70
     1
102
RTVSPropertyOp50
 70
     1
102
RTVSPropertyOp51
 70
     0
102
RTVSPropertyOp52
 70
     0
102
RTVSPropertyOp53
 70
     1
102
RTVSPropertyOp54
 70
     1
102
RTVSPropertyOp55
 70
     1
102
RTVSPropertyOp56
 70
     1
102
RTVSPropertyOp57
 70
     1
102
RTVSPropertyOp58
 70
     1
102
RTVSPropertyOp59
 70
     1
102
RTVSPropertyOp60
 70
     1
102
RTVSPropertyOp61
 70
     1
102
RTVSPropertyOp62
 70
     1
  0
XRECORD
  5
BF3
102
{ACAD_REACTORS
330
BF2
102
}
330
BF2
100
AcDbXrecord
280
     1
102
RTVSPost2010Prop28
280
     0
102
RTVSPost2010PropOp28
 70
     0
102
RTVSPost2010Prop29
280
     1
102
RTVSPost2010PropOp29
 70
     0
102
RTVSPost2010Prop30
280
     1
102
RTVSPost2010PropOp30
 70
     0
102
RTVSPost2010Prop31
280
     0
102
RTVSPost2010PropOp31
 70
     0
102
RTVSPost2010Prop32
280
     0
102
RTVSPost2010PropOp32
 70
     0
102
RTVSPost2010Prop33
280
     0
102
RTVSPost2010PropOp33
 70
     0
102
RTVSPost2010Prop34
280
     0
102
RTVSPost2010PropOp34
 70
     0
102
RTVSPost2010Prop35
280
     0
102
RTVSPost2010PropOp35
 70
     0
102
RTVSPost2010Prop36
280
     0
102
RTVSPost2010PropOp36
 70
     0
102
RTVSPost2010Prop37
 90
       50
102
RTVSPost2010PropOp37
 70
     0
102
RTVSPost2010Prop38
140
0.0
102
RTVSPost2010PropOp38
 70
     0
102
RTVSPost2010Prop39
140
1.0
102
RTVSPost2010PropOp39
 70
     0
102
RTVSPost2010Prop40
 90
        0
102
RTVSPost2010PropOp40
 70
     0
102
RTVSPost2010Prop41ColorIndex
 90
       18
102
RTVSPost2010Prop41ColorRGB
 90
        0
102
RTVSPost2010PropOp41
 70
     0
102
RTVSPost2010Prop42
 90
       50
102
RTVSPost2010PropOp42
 70
     0
102
RTVSPost2010Prop43
 90
        3
102
RTVSPost2010PropOp43
 70
     0
102
RTVSPost2010Prop44ColorIndex
 90
        5
102
RTVSPost2010Prop44ColorRGB
 90
      255
102
RTVSPost2010PropOp44
 70
     0
102
RTVSPost2010Prop45
280
     0
102
RTVSPost2010PropOp45
 70
     0
102
RTVSPost2010Prop46
 90
       50
102
RTVSPost2010PropOp46
 70
     0
102
RTVSPost2010Prop47
 90
       50
102
RTVSPost2010PropOp47
 70
     0
102
RTVSPost2010Prop48
 90
       50
102
RTVSPost2010PropOp48
 70
     0
102
RTVSPost2010Prop49
280
     0
102
RTVSPost2010PropOp49
 70
     0
102
RTVSPost2010Prop50
 90
       50
102
RTVSPost2010PropOp50
 70
     0
102
RTVSPost2010Prop51ColorIndex
 90
      256
102
RTVSPost2010Prop51ColorRGB
 90
-16777216
102
RTVSPost2010PropOp51
 70
     0
102
RTVSPost2010Prop52
140
1.0
102
RTVSPost2010PropOp52
 70
     0
102
RTVSPost2010Prop53
 90
        2
102
RTVSPost2010PropOp53
 70
     0
102
RTVSPost2010Prop54
  1
strokes_ogs.tif
102
RTVSPost2010PropOp54
 70
     0
102
RTVSPost2010Prop55
280
     0
102
RTVSPost2010PropOp55
 70
     0
102
RTVSPost2010Prop56
140
1.0
102
RTVSPost2010PropOp56
 70
     0
102
RTVSPost2010Prop57
140
1.0
102
RTVSPost2010PropOp57
 70
     0
102
RTVSPropertyOp0
 70
     0
102
RTVSPropertyOp1
 70
     0
102
RTVSPropertyOp2
 70
     0
102
RTVSPropertyOp3
 70
     0
102
RTVSPropertyOp4
 70
     0
102
RTVSPropertyOp5
 70
     0
102
RTVSPropertyOp6
 70
     0
102
RTVSPropertyOp7
 70
     0
102
RTVSPropertyOp8
 70
     0
102
RTVSPropertyOp9
 70
     0
102
RTVSPropertyOp10
 70
     0
102
RTVSPropertyOp11
 70
     0
102
RTVSPropertyOp12
 70
     0
102
RTVSPropertyOp13
 70
     0
102
RTVSPropertyOp14
 70
     2
102
RTVSPropertyOp15
 70
     0
102
RTVSPropertyOp16
 70
     0
102
RTVSPropertyOp17
 70
     0
102
RTVSPropertyOp18
 70
     0
102
RTVSPropertyOp19
 70
     0
102
RTVSPropertyOp20
 70
     0
102
RTVSPropertyOp21
 70
     0
102
RTVSPropertyOp22
 70
     0
102
RTVSPropertyOp23
 70
     0
102
RTVSPropertyOp24
 70
     0
102
RTVSPropertyOp25
 70
     0
102
RTVSPropertyOp26
 70
     0
102
RTVSPropertyOp27
 70
     0
102
RTVSPropertyOp28
 70
     0
102
RTVSPropertyOp29
 70
     0
102
RTVSPropertyOp30
 70
     0
102
RTVSPropertyOp31
 70
     0
102
RTVSPropertyOp32
 70
     0
102
RTVSPropertyOp33
 70
     0
102
RTVSPropertyOp34
 70
     0
102
RTVSPropertyOp35
 70
     0
102
RTVSPropertyOp36
 70
     0
102
RTVSPropertyOp37
 70
     0
102
RTVSPropertyOp38
 70
     0
102
RTVSPropertyOp39
 70
     0
102
RTVSPropertyOp40
 70
     0
102
RTVSPropertyOp41
 70
     0
102
RTVSPropertyOp42
 70
     0
102
RTVSPropertyOp43
 70
     0
102
RTVSPropertyOp44
 70
     0
102
RTVSPropertyOp45
 70
     0
102
RTVSPropertyOp46
 70
     0
102
RTVSPropertyOp47
 70
     0
102
RTVSPropertyOp48
 70
     0
102
RTVSPropertyOp49
 70
     0
102
RTVSPropertyOp50
 70
     0
102
RTVSPropertyOp51
 70
     0
102
RTVSPropertyOp52
 70
     0
102
RTVSPropertyOp53
 70
     0
102
RTVSPropertyOp54
 70
     0
102
RTVSPropertyOp55
 70
     0
102
RTVSPropertyOp56
 70
     0
102
RTVSPropertyOp57
 70
     0
102
RTVSPropertyOp58
 70
     0
102
RTVSPropertyOp59
 70
     0
102
RTVSPropertyOp60
 70
     0
102
RTVSPropertyOp61
 70
     0
102
RTVSPropertyOp62
 70
     0
  0
XRECORD
  5
BE3
102
{ACAD_REACTORS
330
BE2
102
}
330
BE2
100
AcDbXrecord
280
     1
102
RTVSPost2010Prop28
280
     0
102
RTVSPost2010PropOp28
 70
     1
102
RTVSPost2010Prop29
280
     1
102
RTVSPost2010PropOp29
 70
     1
102
RTVSPost2010Prop30
280
     1
102
RTVSPost2010PropOp30
 70
     1
102
RTVSPost2010Prop31
280
     0
102
RTVSPost2010PropOp31
 70
     1
102
RTVSPost2010Prop32
280
     0
102
RTVSPost2010PropOp32
 70
     1
102
RTVSPost2010Prop33
280
     0
102
RTVSPost2010PropOp33
 70
     1
102
RTVSPost2010Prop34
280
     0
102
RTVSPost2010PropOp34
 70
     1
102
RTVSPost2010Prop35
280
     0
102
RTVSPost2010PropOp35
 70
     1
102
RTVSPost2010Prop36
280
     0
102
RTVSPost2010PropOp36
 70
     1
102
RTVSPost2010Prop37
 90
       50
102
RTVSPost2010PropOp37
 70
     1
102
RTVSPost2010Prop38
140
0.0
102
RTVSPost2010PropOp38
 70
     1
102
RTVSPost2010Prop39
140
1.0
102
RTVSPost2010PropOp39
 70
     1
102
RTVSPost2010Prop40
 90
        0
102
RTVSPost2010PropOp40
 70
     1
102
RTVSPost2010Prop41ColorIndex
 90
       18
102
RTVSPost2010Prop41ColorRGB
 90
        0
102
RTVSPost2010PropOp41
 70
     1
102
RTVSPost2010Prop42
 90
       50
102
RTVSPost2010PropOp42
 70
     1
102
RTVSPost2010Prop43
 90
        3
102
RTVSPost2010PropOp43
 70
     1
102
RTVSPost2010Prop44ColorIndex
 90
        5
102
RTVSPost2010Prop44ColorRGB
 90
      255
102
RTVSPost2010PropOp44
 70
     1
102
RTVSPost2010Prop45
280
     0
102
RTVSPost2010PropOp45
 70
     1
102
RTVSPost2010Prop46
 90
       50
102
RTVSPost2010PropOp46
 70
     1
102
RTVSPost2010Prop47
 90
       50
102
RTVSPost2010PropOp47
 70
     1
102
RTVSPost2010Prop48
 90
       50
102
RTVSPost2010PropOp48
 70
     1
102
RTVSPost2010Prop49
280
     0
102
RTVSPost2010PropOp49
 70
     1
102
RTVSPost2010Prop50
 90
       50
102
RTVSPost2010PropOp50
 70
     1
102
RTVSPost2010Prop51ColorIndex
 90
      256
102
RTVSPost2010Prop51ColorRGB
 90
-16777216
102
RTVSPost2010PropOp51
 70
     0
102
RTVSPost2010Prop52
140
1.0
102
RTVSPost2010PropOp52
 70
     0
102
RTVSPost2010Prop53
 90
        2
102
RTVSPost2010PropOp53
 70
     1
102
RTVSPost2010Prop54
  1
strokes_ogs.tif
102
RTVSPost2010PropOp54
 70
     1
102
RTVSPost2010Prop55
280
     0
102
RTVSPost2010PropOp55
 70
     1
102
RTVSPost2010Prop56
140
1.0
102
RTVSPost2010PropOp56
 70
     1
102
RTVSPost2010Prop57
140
1.0
102
RTVSPost2010PropOp57
 70
     1
102
RTVSPropertyOp0
 70
     1
102
RTVSPropertyOp1
 70
     1
102
RTVSPropertyOp2
 70
     1
102
RTVSPropertyOp3
 70
     1
102
RTVSPropertyOp4
 70
     1
102
RTVSPropertyOp5
 70
     1
102
RTVSPropertyOp6
 70
     1
102
RTVSPropertyOp7
 70
     1
102
RTVSPropertyOp8
 70
     1
102
RTVSPropertyOp9
 70
     1
102
RTVSPropertyOp10
 70
     1
102
RTVSPropertyOp11
 70
     1
102
RTVSPropertyOp12
 70
     1
102
RTVSPropertyOp13
 70
     1
102
RTVSPropertyOp14
 70
     1
102
RTVSPropertyOp15
 70
     1
102
RTVSPropertyOp16
 70
     1
102
RTVSPropertyOp17
 70
     1
102
RTVSPropertyOp18
 70
     1
102
RTVSPropertyOp19
 70
     1
102
RTVSPropertyOp20
 70
     1
102
RTVSPropertyOp21
 70
     1
102
RTVSPropertyOp22
 70
     1
102
RTVSPropertyOp23
 70
     1
102
RTVSPropertyOp24
 70
     1
102
RTVSPropertyOp25
 70
     1
102
RTVSPropertyOp26
 70
     1
102
RTVSPropertyOp27
 70
     1
102
RTVSPropertyOp28
 70
     1
102
RTVSPropertyOp29
 70
     1
102
RTVSPropertyOp30
 70
     1
102
RTVSPropertyOp31
 70
     1
102
RTVSPropertyOp32
 70
     1
102
RTVSPropertyOp33
 70
     1
102
RTVSPropertyOp34
 70
     1
102
RTVSPropertyOp35
 70
     1
102
RTVSPropertyOp36
 70
     1
102
RTVSPropertyOp37
 70
     1
102
RTVSPropertyOp38
 70
     1
102
RTVSPropertyOp39
 70
     1
102
RTVSPropertyOp40
 70
     1
102
RTVSPropertyOp41
 70
     1
102
RTVSPropertyOp42
 70
     1
102
RTVSPropertyOp43
 70
     1
102
RTVSPropertyOp44
 70
     1
102
RTVSPropertyOp45
 70
     1
102
RTVSPropertyOp46
 70
     1
102
RTVSPropertyOp47
 70
     1
102
RTVSPropertyOp48
 70
     1
102
RTVSPropertyOp49
 70
     1
102
RTVSPropertyOp50
 70
     1
102
RTVSPropertyOp51
 70
     0
102
RTVSPropertyOp52
 70
     0
102
RTVSPropertyOp53
 70
     1
102
RTVSPropertyOp54
 70
     1
102
RTVSPropertyOp55
 70
     1
102
RTVSPropertyOp56
 70
     1
102
RTVSPropertyOp57
 70
     1
102
RTVSPropertyOp58
 70
     1
102
RTVSPropertyOp59
 70
     1
102
RTVSPropertyOp60
 70
     1
102
RTVSPropertyOp61
 70
     1
102
RTVSPropertyOp62
 70
     1
  0
XRECORD
  5
BF5
102
{ACAD_REACTORS
330
BF4
102
}
330
BF4
100
AcDbXrecord
280
     1
102
RTVSPost2010Prop28
280
     0
102
RTVSPost2010PropOp28
 70
     0
102
RTVSPost2010Prop29
280
     1
102
RTVSPost2010PropOp29
 70
     0
102
RTVSPost2010Prop30
280
     1
102
RTVSPost2010PropOp30
 70
     0
102
RTVSPost2010Prop31
280
     0
102
RTVSPost2010PropOp31
 70
     0
102
RTVSPost2010Prop32
280
     0
102
RTVSPost2010PropOp32
 70
     0
102
RTVSPost2010Prop33
280
     0
102
RTVSPost2010PropOp33
 70
     0
102
RTVSPost2010Prop34
280
     0
102
RTVSPost2010PropOp34
 70
     0
102
RTVSPost2010Prop35
280
     0
102
RTVSPost2010PropOp35
 70
     0
102
RTVSPost2010Prop36
280
     0
102
RTVSPost2010PropOp36
 70
     0
102
RTVSPost2010Prop37
 90
       50
102
RTVSPost2010PropOp37
 70
     0
102
RTVSPost2010Prop38
140
0.0
102
RTVSPost2010PropOp38
 70
     0
102
RTVSPost2010Prop39
140
1.0
102
RTVSPost2010PropOp39
 70
     0
102
RTVSPost2010Prop40
 90
        0
102
RTVSPost2010PropOp40
 70
     0
102
RTVSPost2010Prop41ColorIndex
 90
       18
102
RTVSPost2010Prop41ColorRGB
 90
        0
102
RTVSPost2010PropOp41
 70
     0
102
RTVSPost2010Prop42
 90
       50
102
RTVSPost2010PropOp42
 70
     0
102
RTVSPost2010Prop43
 90
        3
102
RTVSPost2010PropOp43
 70
     0
102
RTVSPost2010Prop44ColorIndex
 90
        5
102
RTVSPost2010Prop44ColorRGB
 90
      255
102
RTVSPost2010PropOp44
 70
     0
102
RTVSPost2010Prop45
280
     0
102
RTVSPost2010PropOp45
 70
     0
102
RTVSPost2010Prop46
 90
       50
102
RTVSPost2010PropOp46
 70
     0
102
RTVSPost2010Prop47
 90
       50
102
RTVSPost2010PropOp47
 70
     0
102
RTVSPost2010Prop48
 90
       50
102
RTVSPost2010PropOp48
 70
     0
102
RTVSPost2010Prop49
280
     0
102
RTVSPost2010PropOp49
 70
     0
102
RTVSPost2010Prop50
 90
       50
102
RTVSPost2010PropOp50
 70
     0
102
RTVSPost2010Prop51ColorIndex
 90
      256
102
RTVSPost2010Prop51ColorRGB
 90
-16777216
102
RTVSPost2010PropOp51
 70
     0
102
RTVSPost2010Prop52
140
1.0
102
RTVSPost2010PropOp52
 70
     0
102
RTVSPost2010Prop53
 90
        2
102
RTVSPost2010PropOp53
 70
     0
102
RTVSPost2010Prop54
  1
strokes_ogs.tif
102
RTVSPost2010PropOp54
 70
     0
102
RTVSPost2010Prop55
280
     0
102
RTVSPost2010PropOp55
 70
     0
102
RTVSPost2010Prop56
140
1.0
102
RTVSPost2010PropOp56
 70
     0
102
RTVSPost2010Prop57
140
1.0
102
RTVSPost2010PropOp57
 70
     0
102
RTVSPropertyOp0
 70
     0
102
RTVSPropertyOp1
 70
     0
102
RTVSPropertyOp2
 70
     0
102
RTVSPropertyOp3
 70
     0
102
RTVSPropertyOp4
 70
     0
102
RTVSPropertyOp5
 70
     0
102
RTVSPropertyOp6
 70
     0
102
RTVSPropertyOp7
 70
     0
102
RTVSPropertyOp8
 70
     0
102
RTVSPropertyOp9
 70
     0
102
RTVSPropertyOp10
 70
     0
102
RTVSPropertyOp11
 70
     0
102
RTVSPropertyOp12
 70
     0
102
RTVSPropertyOp13
 70
     0
102
RTVSPropertyOp14
 70
     2
102
RTVSPropertyOp15
 70
     0
102
RTVSPropertyOp16
 70
     0
102
RTVSPropertyOp17
 70
     0
102
RTVSPropertyOp18
 70
     0
102
RTVSPropertyOp19
 70
     0
102
RTVSPropertyOp20
 70
     0
102
RTVSPropertyOp21
 70
     0
102
RTVSPropertyOp22
 70
     0
102
RTVSPropertyOp23
 70
     0
102
RTVSPropertyOp24
 70
     0
102
RTVSPropertyOp25
 70
     0
102
RTVSPropertyOp26
 70
     0
102
RTVSPropertyOp27
 70
     0
102
RTVSPropertyOp28
 70
     0
102
RTVSPropertyOp29
 70
     0
102
RTVSPropertyOp30
 70
     0
102
RTVSPropertyOp31
 70
     0
102
RTVSPropertyOp32
 70
     0
102
RTVSPropertyOp33
 70
     0
102
RTVSPropertyOp34
 70
     0
102
RTVSPropertyOp35
 70
     0
102
RTVSPropertyOp36
 70
     0
102
RTVSPropertyOp37
 70
     0
102
RTVSPropertyOp38
 70
     0
102
RTVSPropertyOp39
 70
     0
102
RTVSPropertyOp40
 70
     0
102
RTVSPropertyOp41
 70
     0
102
RTVSPropertyOp42
 70
     0
102
RTVSPropertyOp43
 70
     0
102
RTVSPropertyOp44
 70
     0
102
RTVSPropertyOp45
 70
     0
102
RTVSPropertyOp46
 70
     0
102
RTVSPropertyOp47
 70
     0
102
RTVSPropertyOp48
 70
     0
102
RTVSPropertyOp49
 70
     0
102
RTVSPropertyOp50
 70
     0
102
RTVSPropertyOp51
 70
     0
102
RTVSPropertyOp52
 70
     0
102
RTVSPropertyOp53
 70
     0
102
RTVSPropertyOp54
 70
     0
102
RTVSPropertyOp55
 70
     0
102
RTVSPropertyOp56
 70
     0
102
RTVSPropertyOp57
 70
     0
102
RTVSPropertyOp58
 70
     0
102
RTVSPropertyOp59
 70
     0
102
RTVSPropertyOp60
 70
     0
102
RTVSPropertyOp61
 70
     0
102
RTVSPropertyOp62
 70
     0
  0
XRECORD
  5
BDB
102
{ACAD_REACTORS
330
BDA
102
}
330
BDA
100
AcDbXrecord
280
     1
102
RTVSPost2010Prop28
280
     0
102
RTVSPost2010PropOp28
 70
     1
102
RTVSPost2010Prop29
280
     1
102
RTVSPost2010PropOp29
 70
     1
102
RTVSPost2010Prop30
280
     1
102
RTVSPost2010PropOp30
 70
     1
102
RTVSPost2010Prop31
280
     0
102
RTVSPost2010PropOp31
 70
     1
102
RTVSPost2010Prop32
280
     0
102
RTVSPost2010PropOp32
 70
     1
102
RTVSPost2010Prop33
280
     0
102
RTVSPost2010PropOp33
 70
     1
102
RTVSPost2010Prop34
280
     0
102
RTVSPost2010PropOp34
 70
     1
102
RTVSPost2010Prop35
280
     0
102
RTVSPost2010PropOp35
 70
     1
102
RTVSPost2010Prop36
280
     0
102
RTVSPost2010PropOp36
 70
     1
102
RTVSPost2010Prop37
 90
       50
102
RTVSPost2010PropOp37
 70
     1
102
RTVSPost2010Prop38
140
0.0
102
RTVSPost2010PropOp38
 70
     1
102
RTVSPost2010Prop39
140
1.0
102
RTVSPost2010PropOp39
 70
     1
102
RTVSPost2010Prop40
 90
        0
102
RTVSPost2010PropOp40
 70
     1
102
RTVSPost2010Prop41ColorIndex
 90
       18
102
RTVSPost2010Prop41ColorRGB
 90
        0
102
RTVSPost2010PropOp41
 70
     1
102
RTVSPost2010Prop42
 90
       50
102
RTVSPost2010PropOp42
 70
     1
102
RTVSPost2010Prop43
 90
        3
102
RTVSPost2010PropOp43
 70
     1
102
RTVSPost2010Prop44ColorIndex
 90
        5
102
RTVSPost2010Prop44ColorRGB
 90
      255
102
RTVSPost2010PropOp44
 70
     1
102
RTVSPost2010Prop45
280
     0
102
RTVSPost2010PropOp45
 70
     1
102
RTVSPost2010Prop46
 90
       50
102
RTVSPost2010PropOp46
 70
     1
102
RTVSPost2010Prop47
 90
       50
102
RTVSPost2010PropOp47
 70
     1
102
RTVSPost2010Prop48
 90
       50
102
RTVSPost2010PropOp48
 70
     1
102
RTVSPost2010Prop49
280
     0
102
RTVSPost2010PropOp49
 70
     1
102
RTVSPost2010Prop50
 90
       50
102
RTVSPost2010PropOp50
 70
     1
102
RTVSPost2010Prop51ColorIndex
 90
      256
102
RTVSPost2010Prop51ColorRGB
 90
-16777216
102
RTVSPost2010PropOp51
 70
     0
102
RTVSPost2010Prop52
140
1.0
102
RTVSPost2010PropOp52
 70
     0
102
RTVSPost2010Prop53
 90
        2
102
RTVSPost2010PropOp53
 70
     1
102
RTVSPost2010Prop54
  1
strokes_ogs.tif
102
RTVSPost2010PropOp54
 70
     1
102
RTVSPost2010Prop55
280
     0
102
RTVSPost2010PropOp55
 70
     1
102
RTVSPost2010Prop56
140
1.0
102
RTVSPost2010PropOp56
 70
     1
102
RTVSPost2010Prop57
140
1.0
102
RTVSPost2010PropOp57
 70
     1
102
RTVSPropertyOp0
 70
     1
102
RTVSPropertyOp1
 70
     1
102
RTVSPropertyOp2
 70
     1
102
RTVSPropertyOp3
 70
     1
102
RTVSPropertyOp4
 70
     1
102
RTVSPropertyOp5
 70
     1
102
RTVSPropertyOp6
 70
     1
102
RTVSPropertyOp7
 70
     1
102
RTVSPropertyOp8
 70
     1
102
RTVSPropertyOp9
 70
     1
102
RTVSPropertyOp10
 70
     1
102
RTVSPropertyOp11
 70
     1
102
RTVSPropertyOp12
 70
     1
102
RTVSPropertyOp13
 70
     1
102
RTVSPropertyOp14
 70
     1
102
RTVSPropertyOp15
 70
     1
102
RTVSPropertyOp16
 70
     1
102
RTVSPropertyOp17
 70
     1
102
RTVSPropertyOp18
 70
     1
102
RTVSPropertyOp19
 70
     1
102
RTVSPropertyOp20
 70
     1
102
RTVSPropertyOp21
 70
     1
102
RTVSPropertyOp22
 70
     1
102
RTVSPropertyOp23
 70
     1
102
RTVSPropertyOp24
 70
     1
102
RTVSPropertyOp25
 70
     1
102
RTVSPropertyOp26
 70
     1
102
RTVSPropertyOp27
 70
     1
102
RTVSPropertyOp28
 70
     1
102
RTVSPropertyOp29
 70
     1
102
RTVSPropertyOp30
 70
     1
102
RTVSPropertyOp31
 70
     1
102
RTVSPropertyOp32
 70
     1
102
RTVSPropertyOp33
 70
     1
102
RTVSPropertyOp34
 70
     1
102
RTVSPropertyOp35
 70
     1
102
RTVSPropertyOp36
 70
     1
102
RTVSPropertyOp37
 70
     1
102
RTVSPropertyOp38
 70
     1
102
RTVSPropertyOp39
 70
     1
102
RTVSPropertyOp40
 70
     1
102
RTVSPropertyOp41
 70
     1
102
RTVSPropertyOp42
 70
     1
102
RTVSPropertyOp43
 70
     1
102
RTVSPropertyOp44
 70
     1
102
RTVSPropertyOp45
 70
     1
102
RTVSPropertyOp46
 70
     1
102
RTVSPropertyOp47
 70
     1
102
RTVSPropertyOp48
 70
     1
102
RTVSPropertyOp49
 70
     1
102
RTVSPropertyOp50
 70
     1
102
RTVSPropertyOp51
 70
     0
102
RTVSPropertyOp52
 70
     0
102
RTVSPropertyOp53
 70
     1
102
RTVSPropertyOp54
 70
     1
102
RTVSPropertyOp55
 70
     1
102
RTVSPropertyOp56
 70
     1
102
RTVSPropertyOp57
 70
     1
102
RTVSPropertyOp58
 70
     1
102
RTVSPropertyOp59
 70
     1
102
RTVSPropertyOp60
 70
     1
102
RTVSPropertyOp61
 70
     1
102
RTVSPropertyOp62
 70
     1
  0
XRECORD
  5
BF1
102
{ACAD_REACTORS
330
BF0
102
}
330
BF0
100
AcDbXrecord
280
     1
102
RTVSPost2010Prop28
280
     0
102
RTVSPost2010PropOp28
 70
     1
102
RTVSPost2010Prop29
280
     1
102
RTVSPost2010PropOp29
 70
     1
102
RTVSPost2010Prop30
280
     1
102
RTVSPost2010PropOp30
 70
     1
102
RTVSPost2010Prop31
280
     0
102
RTVSPost2010PropOp31
 70
     1
102
RTVSPost2010Prop32
280
     0
102
RTVSPost2010PropOp32
 70
     1
102
RTVSPost2010Prop33
280
     0
102
RTVSPost2010PropOp33
 70
     1
102
RTVSPost2010Prop34
280
     0
102
RTVSPost2010PropOp34
 70
     1
102
RTVSPost2010Prop35
280
     0
102
RTVSPost2010PropOp35
 70
     1
102
RTVSPost2010Prop36
280
     0
102
RTVSPost2010PropOp36
 70
     1
102
RTVSPost2010Prop37
 90
       50
102
RTVSPost2010PropOp37
 70
     1
102
RTVSPost2010Prop38
140
0.0
102
RTVSPost2010PropOp38
 70
     1
102
RTVSPost2010Prop39
140
1.0
102
RTVSPost2010PropOp39
 70
     1
102
RTVSPost2010Prop40
 90
        0
102
RTVSPost2010PropOp40
 70
     1
102
RTVSPost2010Prop41ColorIndex
 90
       18
102
RTVSPost2010Prop41ColorRGB
 90
        0
102
RTVSPost2010PropOp41
 70
     1
102
RTVSPost2010Prop42
 90
       50
102
RTVSPost2010PropOp42
 70
     1
102
RTVSPost2010Prop43
 90
        3
102
RTVSPost2010PropOp43
 70
     1
102
RTVSPost2010Prop44ColorIndex
 90
        5
102
RTVSPost2010Prop44ColorRGB
 90
      255
102
RTVSPost2010PropOp44
 70
     1
102
RTVSPost2010Prop45
280
     0
102
RTVSPost2010PropOp45
 70
     1
102
RTVSPost2010Prop46
 90
       50
102
RTVSPost2010PropOp46
 70
     1
102
RTVSPost2010Prop47
 90
       50
102
RTVSPost2010PropOp47
 70
     1
102
RTVSPost2010Prop48
 90
       50
102
RTVSPost2010PropOp48
 70
     1
102
RTVSPost2010Prop49
280
     0
102
RTVSPost2010PropOp49
 70
     1
102
RTVSPost2010Prop50
 90
       50
102
RTVSPost2010PropOp50
 70
     1
102
RTVSPost2010Prop51ColorIndex
 90
      256
102
RTVSPost2010Prop51ColorRGB
 90
-16777216
102
RTVSPost2010PropOp51
 70
     0
102
RTVSPost2010Prop52
140
1.0
102
RTVSPost2010PropOp52
 70
     0
102
RTVSPost2010Prop53
 90
        2
102
RTVSPost2010PropOp53
 70
     1
102
RTVSPost2010Prop54
  1
strokes_ogs.tif
102
RTVSPost2010PropOp54
 70
     1
102
RTVSPost2010Prop55
280
     0
102
RTVSPost2010PropOp55
 70
     1
102
RTVSPost2010Prop56
140
1.0
102
RTVSPost2010PropOp56
 70
     1
102
RTVSPost2010Prop57
140
1.0
102
RTVSPost2010PropOp57
 70
     1
102
RTVSPropertyOp0
 70
     1
102
RTVSPropertyOp1
 70
     1
102
RTVSPropertyOp2
 70
     1
102
RTVSPropertyOp3
 70
     1
102
RTVSPropertyOp4
 70
     1
102
RTVSPropertyOp5
 70
     1
102
RTVSPropertyOp6
 70
     1
102
RTVSPropertyOp7
 70
     1
102
RTVSPropertyOp8
 70
     1
102
RTVSPropertyOp9
 70
     1
102
RTVSPropertyOp10
 70
     1
102
RTVSPropertyOp11
 70
     1
102
RTVSPropertyOp12
 70
     1
102
RTVSPropertyOp13
 70
     1
102
RTVSPropertyOp14
 70
     1
102
RTVSPropertyOp15
 70
     1
102
RTVSPropertyOp16
 70
     1
102
RTVSPropertyOp17
 70
     1
102
RTVSPropertyOp18
 70
     1
102
RTVSPropertyOp19
 70
     1
102
RTVSPropertyOp20
 70
     1
102
RTVSPropertyOp21
 70
     1
102
RTVSPropertyOp22
 70
     1
102
RTVSPropertyOp23
 70
     1
102
RTVSPropertyOp24
 70
     1
102
RTVSPropertyOp25
 70
     1
102
RTVSPropertyOp26
 70
     1
102
RTVSPropertyOp27
 70
     1
102
RTVSPropertyOp28
 70
     1
102
RTVSPropertyOp29
 70
     1
102
RTVSPropertyOp30
 70
     1
102
RTVSPropertyOp31
 70
     1
102
RTVSPropertyOp32
 70
     1
102
RTVSPropertyOp33
 70
     1
102
RTVSPropertyOp34
 70
     1
102
RTVSPropertyOp35
 70
     1
102
RTVSPropertyOp36
 70
     1
102
RTVSPropertyOp37
 70
     1
102
RTVSPropertyOp38
 70
     1
102
RTVSPropertyOp39
 70
     1
102
RTVSPropertyOp40
 70
     1
102
RTVSPropertyOp41
 70
     1
102
RTVSPropertyOp42
 70
     1
102
RTVSPropertyOp43
 70
     1
102
RTVSPropertyOp44
 70
     1
102
RTVSPropertyOp45
 70
     1
102
RTVSPropertyOp46
 70
     1
102
RTVSPropertyOp47
 70
     1
102
RTVSPropertyOp48
 70
     1
102
RTVSPropertyOp49
 70
     1
102
RTVSPropertyOp50
 70
     1
102
RTVSPropertyOp51
 70
     0
102
RTVSPropertyOp52
 70
     0
102
RTVSPropertyOp53
 70
     1
102
RTVSPropertyOp54
 70
     1
102
RTVSPropertyOp55
 70
     1
102
RTVSPropertyOp56
 70
     1
102
RTVSPropertyOp57
 70
     1
102
RTVSPropertyOp58
 70
     1
102
RTVSPropertyOp59
 70
     1
102
RTVSPropertyOp60
 70
     1
102
RTVSPropertyOp61
 70
     1
102
RTVSPropertyOp62
 70
     1
  0
XRECORD
  5
BEF
102
{ACAD_REACTORS
330
BEE
102
}
330
BEE
100
AcDbXrecord
280
     1
102
RTVSPost2010Prop28
280
     0
102
RTVSPost2010PropOp28
 70
     1
102
RTVSPost2010Prop29
280
     1
102
RTVSPost2010PropOp29
 70
     1
102
RTVSPost2010Prop30
280
     1
102
RTVSPost2010PropOp30
 70
     1
102
RTVSPost2010Prop31
280
     0
102
RTVSPost2010PropOp31
 70
     1
102
RTVSPost2010Prop32
280
     0
102
RTVSPost2010PropOp32
 70
     1
102
RTVSPost2010Prop33
280
     0
102
RTVSPost2010PropOp33
 70
     1
102
RTVSPost2010Prop34
280
     0
102
RTVSPost2010PropOp34
 70
     1
102
RTVSPost2010Prop35
280
     0
102
RTVSPost2010PropOp35
 70
     1
102
RTVSPost2010Prop36
280
     0
102
RTVSPost2010PropOp36
 70
     1
102
RTVSPost2010Prop37
 90
       50
102
RTVSPost2010PropOp37
 70
     1
102
RTVSPost2010Prop38
140
0.0
102
RTVSPost2010PropOp38
 70
     1
102
RTVSPost2010Prop39
140
1.0
102
RTVSPost2010PropOp39
 70
     1
102
RTVSPost2010Prop40
 90
        0
102
RTVSPost2010PropOp40
 70
     1
102
RTVSPost2010Prop41ColorIndex
 90
       18
102
RTVSPost2010Prop41ColorRGB
 90
        0
102
RTVSPost2010PropOp41
 70
     1
102
RTVSPost2010Prop42
 90
       50
102
RTVSPost2010PropOp42
 70
     1
102
RTVSPost2010Prop43
 90
        3
102
RTVSPost2010PropOp43
 70
     1
102
RTVSPost2010Prop44ColorIndex
 90
        5
102
RTVSPost2010Prop44ColorRGB
 90
      255
102
RTVSPost2010PropOp44
 70
     1
102
RTVSPost2010Prop45
280
     0
102
RTVSPost2010PropOp45
 70
     1
102
RTVSPost2010Prop46
 90
       50
102
RTVSPost2010PropOp46
 70
     1
102
RTVSPost2010Prop47
 90
       50
102
RTVSPost2010PropOp47
 70
     1
102
RTVSPost2010Prop48
 90
       50
102
RTVSPost2010PropOp48
 70
     1
102
RTVSPost2010Prop49
280
     0
102
RTVSPost2010PropOp49
 70
     1
102
RTVSPost2010Prop50
 90
       50
102
RTVSPost2010PropOp50
 70
     1
102
RTVSPost2010Prop51ColorIndex
 90
      256
102
RTVSPost2010Prop51ColorRGB
 90
-16777216
102
RTVSPost2010PropOp51
 70
     0
102
RTVSPost2010Prop52
140
1.0
102
RTVSPost2010PropOp52
 70
     0
102
RTVSPost2010Prop53
 90
        2
102
RTVSPost2010PropOp53
 70
     1
102
RTVSPost2010Prop54
  1
strokes_ogs.tif
102
RTVSPost2010PropOp54
 70
     1
102
RTVSPost2010Prop55
280
     0
102
RTVSPost2010PropOp55
 70
     1
102
RTVSPost2010Prop56
140
1.0
102
RTVSPost2010PropOp56
 70
     1
102
RTVSPost2010Prop57
140
1.0
102
RTVSPost2010PropOp57
 70
     1
102
RTVSPropertyOp0
 70
     1
102
RTVSPropertyOp1
 70
     1
102
RTVSPropertyOp2
 70
     1
102
RTVSPropertyOp3
 70
     1
102
RTVSPropertyOp4
 70
     1
102
RTVSPropertyOp5
 70
     1
102
RTVSPropertyOp6
 70
     1
102
RTVSPropertyOp7
 70
     1
102
RTVSPropertyOp8
 70
     1
102
RTVSPropertyOp9
 70
     1
102
RTVSPropertyOp10
 70
     1
102
RTVSPropertyOp11
 70
     1
102
RTVSPropertyOp12
 70
     1
102
RTVSPropertyOp13
 70
     1
102
RTVSPropertyOp14
 70
     1
102
RTVSPropertyOp15
 70
     1
102
RTVSPropertyOp16
 70
     1
102
RTVSPropertyOp17
 70
     1
102
RTVSPropertyOp18
 70
     1
102
RTVSPropertyOp19
 70
     1
102
RTVSPropertyOp20
 70
     1
102
RTVSPropertyOp21
 70
     1
102
RTVSPropertyOp22
 70
     1
102
RTVSPropertyOp23
 70
     1
102
RTVSPropertyOp24
 70
     1
102
RTVSPropertyOp25
 70
     1
102
RTVSPropertyOp26
 70
     1
102
RTVSPropertyOp27
 70
     1
102
RTVSPropertyOp28
 70
     1
102
RTVSPropertyOp29
 70
     1
102
RTVSPropertyOp30
 70
     1
102
RTVSPropertyOp31
 70
     1
102
RTVSPropertyOp32
 70
     1
102
RTVSPropertyOp33
 70
     1
102
RTVSPropertyOp34
 70
     1
102
RTVSPropertyOp35
 70
     1
102
RTVSPropertyOp36
 70
     1
102
RTVSPropertyOp37
 70
     1
102
RTVSPropertyOp38
 70
     1
102
RTVSPropertyOp39
 70
     1
102
RTVSPropertyOp40
 70
     1
102
RTVSPropertyOp41
 70
     1
102
RTVSPropertyOp42
 70
     1
102
RTVSPropertyOp43
 70
     1
102
RTVSPropertyOp44
 70
     1
102
RTVSPropertyOp45
 70
     1
102
RTVSPropertyOp46
 70
     1
102
RTVSPropertyOp47
 70
     1
102
RTVSPropertyOp48
 70
     1
102
RTVSPropertyOp49
 70
     1
102
RTVSPropertyOp50
 70
     1
102
RTVSPropertyOp51
 70
     0
102
RTVSPropertyOp52
 70
     0
102
RTVSPropertyOp53
 70
     1
102
RTVSPropertyOp54
 70
     1
102
RTVSPropertyOp55
 70
     1
102
RTVSPropertyOp56
 70
     1
102
RTVSPropertyOp57
 70
     1
102
RTVSPropertyOp58
 70
     1
102
RTVSPropertyOp59
 70
     1
102
RTVSPropertyOp60
 70
     1
102
RTVSPropertyOp61
 70
     1
102
RTVSPropertyOp62
 70
     1
  0
XRECORD
  5
BE9
102
{ACAD_REACTORS
330
BE8
102
}
330
BE8
100
AcDbXrecord
280
     1
102
RTVSPost2010Prop28
280
     0
102
RTVSPost2010PropOp28
 70
     1
102
RTVSPost2010Prop29
280
     1
102
RTVSPost2010PropOp29
 70
     1
102
RTVSPost2010Prop30
280
     1
102
RTVSPost2010PropOp30
 70
     1
102
RTVSPost2010Prop31
280
     0
102
RTVSPost2010PropOp31
 70
     1
102
RTVSPost2010Prop32
280
     0
102
RTVSPost2010PropOp32
 70
     1
102
RTVSPost2010Prop33
280
     0
102
RTVSPost2010PropOp33
 70
     1
102
RTVSPost2010Prop34
280
     0
102
RTVSPost2010PropOp34
 70
     1
102
RTVSPost2010Prop35
280
     0
102
RTVSPost2010PropOp35
 70
     1
102
RTVSPost2010Prop36
280
     0
102
RTVSPost2010PropOp36
 70
     1
102
RTVSPost2010Prop37
 90
       50
102
RTVSPost2010PropOp37
 70
     1
102
RTVSPost2010Prop38
140
0.0
102
RTVSPost2010PropOp38
 70
     1
102
RTVSPost2010Prop39
140
1.0
102
RTVSPost2010PropOp39
 70
     1
102
RTVSPost2010Prop40
 90
        0
102
RTVSPost2010PropOp40
 70
     1
102
RTVSPost2010Prop41ColorIndex
 90
       18
102
RTVSPost2010Prop41ColorRGB
 90
        0
102
RTVSPost2010PropOp41
 70
     1
102
RTVSPost2010Prop42
 90
       50
102
RTVSPost2010PropOp42
 70
     1
102
RTVSPost2010Prop43
 90
        3
102
RTVSPost2010PropOp43
 70
     1
102
RTVSPost2010Prop44ColorIndex
 90
        5
102
RTVSPost2010Prop44ColorRGB
 90
      255
102
RTVSPost2010PropOp44
 70
     1
102
RTVSPost2010Prop45
280
     0
102
RTVSPost2010PropOp45
 70
     1
102
RTVSPost2010Prop46
 90
       50
102
RTVSPost2010PropOp46
 70
     1
102
RTVSPost2010Prop47
 90
       50
102
RTVSPost2010PropOp47
 70
     1
102
RTVSPost2010Prop48
 90
       50
102
RTVSPost2010PropOp48
 70
     1
102
RTVSPost2010Prop49
280
     0
102
RTVSPost2010PropOp49
 70
     1
102
RTVSPost2010Prop50
 90
       50
102
RTVSPost2010PropOp50
 70
     1
102
RTVSPost2010Prop51ColorIndex
 90
      256
102
RTVSPost2010Prop51ColorRGB
 90
-16777216
102
RTVSPost2010PropOp51
 70
     0
102
RTVSPost2010Prop52
140
1.0
102
RTVSPost2010PropOp52
 70
     0
102
RTVSPost2010Prop53
 90
        2
102
RTVSPost2010PropOp53
 70
     1
102
RTVSPost2010Prop54
  1
strokes_ogs.tif
102
RTVSPost2010PropOp54
 70
     1
102
RTVSPost2010Prop55
280
     0
102
RTVSPost2010PropOp55
 70
     1
102
RTVSPost2010Prop56
140
1.0
102
RTVSPost2010PropOp56
 70
     1
102
RTVSPost2010Prop57
140
1.0
102
RTVSPost2010PropOp57
 70
     1
102
RTVSPropertyOp0
 70
     1
102
RTVSPropertyOp1
 70
     1
102
RTVSPropertyOp2
 70
     1
102
RTVSPropertyOp3
 70
     1
102
RTVSPropertyOp4
 70
     1
102
RTVSPropertyOp5
 70
     1
102
RTVSPropertyOp6
 70
     1
102
RTVSPropertyOp7
 70
     1
102
RTVSPropertyOp8
 70
     1
102
RTVSPropertyOp9
 70
     1
102
RTVSPropertyOp10
 70
     1
102
RTVSPropertyOp11
 70
     1
102
RTVSPropertyOp12
 70
     1
102
RTVSPropertyOp13
 70
     1
102
RTVSPropertyOp14
 70
     1
102
RTVSPropertyOp15
 70
     1
102
RTVSPropertyOp16
 70
     1
102
RTVSPropertyOp17
 70
     1
102
RTVSPropertyOp18
 70
     1
102
RTVSPropertyOp19
 70
     1
102
RTVSPropertyOp20
 70
     1
102
RTVSPropertyOp21
 70
     1
102
RTVSPropertyOp22
 70
     1
102
RTVSPropertyOp23
 70
     1
102
RTVSPropertyOp24
 70
     1
102
RTVSPropertyOp25
 70
     1
102
RTVSPropertyOp26
 70
     1
102
RTVSPropertyOp27
 70
     1
102
RTVSPropertyOp28
 70
     1
102
RTVSPropertyOp29
 70
     1
102
RTVSPropertyOp30
 70
     1
102
RTVSPropertyOp31
 70
     1
102
RTVSPropertyOp32
 70
     1
102
RTVSPropertyOp33
 70
     1
102
RTVSPropertyOp34
 70
     1
102
RTVSPropertyOp35
 70
     1
102
RTVSPropertyOp36
 70
     1
102
RTVSPropertyOp37
 70
     1
102
RTVSPropertyOp38
 70
     1
102
RTVSPropertyOp39
 70
     1
102
RTVSPropertyOp40
 70
     1
102
RTVSPropertyOp41
 70
     1
102
RTVSPropertyOp42
 70
     1
102
RTVSPropertyOp43
 70
     1
102
RTVSPropertyOp44
 70
     1
102
RTVSPropertyOp45
 70
     1
102
RTVSPropertyOp46
 70
     1
102
RTVSPropertyOp47
 70
     1
102
RTVSPropertyOp48
 70
     1
102
RTVSPropertyOp49
 70
     1
102
RTVSPropertyOp50
 70
     1
102
RTVSPropertyOp51
 70
     0
102
RTVSPropertyOp52
 70
     0
102
RTVSPropertyOp53
 70
     1
102
RTVSPropertyOp54
 70
     1
102
RTVSPropertyOp55
 70
     1
102
RTVSPropertyOp56
 70
     1
102
RTVSPropertyOp57
 70
     1
102
RTVSPropertyOp58
 70
     1
102
RTVSPropertyOp59
 70
     1
102
RTVSPropertyOp60
 70
     1
102
RTVSPropertyOp61
 70
     1
102
RTVSPropertyOp62
 70
     1
  0
XRECORD
  5
BEB
102
{ACAD_REACTORS
330
BEA
102
}
330
BEA
100
AcDbXrecord
280
     1
102
RTVSPost2010Prop28
280
     0
102
RTVSPost2010PropOp28
 70
     1
102
RTVSPost2010Prop29
280
     1
102
RTVSPost2010PropOp29
 70
     1
102
RTVSPost2010Prop30
280
     1
102
RTVSPost2010PropOp30
 70
     1
102
RTVSPost2010Prop31
280
     0
102
RTVSPost2010PropOp31
 70
     1
102
RTVSPost2010Prop32
280
     0
102
RTVSPost2010PropOp32
 70
     1
102
RTVSPost2010Prop33
280
     0
102
RTVSPost2010PropOp33
 70
     1
102
RTVSPost2010Prop34
280
     0
102
RTVSPost2010PropOp34
 70
     1
102
RTVSPost2010Prop35
280
     0
102
RTVSPost2010PropOp35
 70
     1
102
RTVSPost2010Prop36
280
     0
102
RTVSPost2010PropOp36
 70
     1
102
RTVSPost2010Prop37
 90
       50
102
RTVSPost2010PropOp37
 70
     1
102
RTVSPost2010Prop38
140
0.0
102
RTVSPost2010PropOp38
 70
     1
102
RTVSPost2010Prop39
140
1.0
102
RTVSPost2010PropOp39
 70
     1
102
RTVSPost2010Prop40
 90
        0
102
RTVSPost2010PropOp40
 70
     1
102
RTVSPost2010Prop41ColorIndex
 90
       18
102
RTVSPost2010Prop41ColorRGB
 90
        0
102
RTVSPost2010PropOp41
 70
     1
102
RTVSPost2010Prop42
 90
       50
102
RTVSPost2010PropOp42
 70
     1
102
RTVSPost2010Prop43
 90
        3
102
RTVSPost2010PropOp43
 70
     1
102
RTVSPost2010Prop44ColorIndex
 90
        5
102
RTVSPost2010Prop44ColorRGB
 90
      255
102
RTVSPost2010PropOp44
 70
     1
102
RTVSPost2010Prop45
280
     0
102
RTVSPost2010PropOp45
 70
     1
102
RTVSPost2010Prop46
 90
       50
102
RTVSPost2010PropOp46
 70
     1
102
RTVSPost2010Prop47
 90
       50
102
RTVSPost2010PropOp47
 70
     1
102
RTVSPost2010Prop48
 90
       50
102
RTVSPost2010PropOp48
 70
     1
102
RTVSPost2010Prop49
280
     0
102
RTVSPost2010PropOp49
 70
     1
102
RTVSPost2010Prop50
 90
       50
102
RTVSPost2010PropOp50
 70
     1
102
RTVSPost2010Prop51ColorIndex
 90
      256
102
RTVSPost2010Prop51ColorRGB
 90
-16777216
102
RTVSPost2010PropOp51
 70
     0
102
RTVSPost2010Prop52
140
1.0
102
RTVSPost2010PropOp52
 70
     0
102
RTVSPost2010Prop53
 90
        2
102
RTVSPost2010PropOp53
 70
     1
102
RTVSPost2010Prop54
  1
strokes_ogs.tif
102
RTVSPost2010PropOp54
 70
     1
102
RTVSPost2010Prop55
280
     0
102
RTVSPost2010PropOp55
 70
     1
102
RTVSPost2010Prop56
140
1.0
102
RTVSPost2010PropOp56
 70
     1
102
RTVSPost2010Prop57
140
1.0
102
RTVSPost2010PropOp57
 70
     1
102
RTVSPropertyOp0
 70
     1
102
RTVSPropertyOp1
 70
     1
102
RTVSPropertyOp2
 70
     1
102
RTVSPropertyOp3
 70
     1
102
RTVSPropertyOp4
 70
     1
102
RTVSPropertyOp5
 70
     1
102
RTVSPropertyOp6
 70
     1
102
RTVSPropertyOp7
 70
     1
102
RTVSPropertyOp8
 70
     1
102
RTVSPropertyOp9
 70
     1
102
RTVSPropertyOp10
 70
     1
102
RTVSPropertyOp11
 70
     1
102
RTVSPropertyOp12
 70
     1
102
RTVSPropertyOp13
 70
     1
102
RTVSPropertyOp14
 70
     1
102
RTVSPropertyOp15
 70
     1
102
RTVSPropertyOp16
 70
     1
102
RTVSPropertyOp17
 70
     1
102
RTVSPropertyOp18
 70
     1
102
RTVSPropertyOp19
 70
     1
102
RTVSPropertyOp20
 70
     1
102
RTVSPropertyOp21
 70
     1
102
RTVSPropertyOp22
 70
     1
102
RTVSPropertyOp23
 70
     1
102
RTVSPropertyOp24
 70
     1
102
RTVSPropertyOp25
 70
     1
102
RTVSPropertyOp26
 70
     1
102
RTVSPropertyOp27
 70
     1
102
RTVSPropertyOp28
 70
     1
102
RTVSPropertyOp29
 70
     1
102
RTVSPropertyOp30
 70
     1
102
RTVSPropertyOp31
 70
     1
102
RTVSPropertyOp32
 70
     1
102
RTVSPropertyOp33
 70
     1
102
RTVSPropertyOp34
 70
     1
102
RTVSPropertyOp35
 70
     1
102
RTVSPropertyOp36
 70
     1
102
RTVSPropertyOp37
 70
     1
102
RTVSPropertyOp38
 70
     1
102
RTVSPropertyOp39
 70
     1
102
RTVSPropertyOp40
 70
     1
102
RTVSPropertyOp41
 70
     1
102
RTVSPropertyOp42
 70
     1
102
RTVSPropertyOp43
 70
     1
102
RTVSPropertyOp44
 70
     1
102
RTVSPropertyOp45
 70
     1
102
RTVSPropertyOp46
 70
     1
102
RTVSPropertyOp47
 70
     1
102
RTVSPropertyOp48
 70
     1
102
RTVSPropertyOp49
 70
     1
102
RTVSPropertyOp50
 70
     1
102
RTVSPropertyOp51
 70
     0
102
RTVSPropertyOp52
 70
     0
102
RTVSPropertyOp53
 70
     1
102
RTVSPropertyOp54
 70
     1
102
RTVSPropertyOp55
 70
     1
102
RTVSPropertyOp56
 70
     1
102
RTVSPropertyOp57
 70
     1
102
RTVSPropertyOp58
 70
     1
102
RTVSPropertyOp59
 70
     1
102
RTVSPropertyOp60
 70
     1
102
RTVSPropertyOp61
 70
     1
102
RTVSPropertyOp62
 70
     1
  0
XRECORD
  5
BE1
102
{ACAD_REACTORS
330
BE0
102
}
330
BE0
100
AcDbXrecord
280
     1
102
RTVSPost2010Prop28
280
     0
102
RTVSPost2010PropOp28
 70
     1
102
RTVSPost2010Prop29
280
     1
102
RTVSPost2010PropOp29
 70
     1
102
RTVSPost2010Prop30
280
     1
102
RTVSPost2010PropOp30
 70
     1
102
RTVSPost2010Prop31
280
     0
102
RTVSPost2010PropOp31
 70
     1
102
RTVSPost2010Prop32
280
     0
102
RTVSPost2010PropOp32
 70
     1
102
RTVSPost2010Prop33
280
     0
102
RTVSPost2010PropOp33
 70
     1
102
RTVSPost2010Prop34
280
     0
102
RTVSPost2010PropOp34
 70
     1
102
RTVSPost2010Prop35
280
     0
102
RTVSPost2010PropOp35
 70
     1
102
RTVSPost2010Prop36
280
     0
102
RTVSPost2010PropOp36
 70
     1
102
RTVSPost2010Prop37
 90
       50
102
RTVSPost2010PropOp37
 70
     1
102
RTVSPost2010Prop38
140
0.0
102
RTVSPost2010PropOp38
 70
     1
102
RTVSPost2010Prop39
140
1.0
102
RTVSPost2010PropOp39
 70
     1
102
RTVSPost2010Prop40
 90
        0
102
RTVSPost2010PropOp40
 70
     1
102
RTVSPost2010Prop41ColorIndex
 90
       18
102
RTVSPost2010Prop41ColorRGB
 90
        0
102
RTVSPost2010PropOp41
 70
     1
102
RTVSPost2010Prop42
 90
       50
102
RTVSPost2010PropOp42
 70
     1
102
RTVSPost2010Prop43
 90
        3
102
RTVSPost2010PropOp43
 70
     1
102
RTVSPost2010Prop44ColorIndex
 90
        5
102
RTVSPost2010Prop44ColorRGB
 90
      255
102
RTVSPost2010PropOp44
 70
     1
102
RTVSPost2010Prop45
280
     0
102
RTVSPost2010PropOp45
 70
     1
102
RTVSPost2010Prop46
 90
       50
102
RTVSPost2010PropOp46
 70
     1
102
RTVSPost2010Prop47
 90
       50
102
RTVSPost2010PropOp47
 70
     1
102
RTVSPost2010Prop48
 90
       50
102
RTVSPost2010PropOp48
 70
     1
102
RTVSPost2010Prop49
280
     0
102
RTVSPost2010PropOp49
 70
     1
102
RTVSPost2010Prop50
 90
       50
102
RTVSPost2010PropOp50
 70
     1
102
RTVSPost2010Prop51ColorIndex
 90
      256
102
RTVSPost2010Prop51ColorRGB
 90
-16777216
102
RTVSPost2010PropOp51
 70
     0
102
RTVSPost2010Prop52
140
1.0
102
RTVSPost2010PropOp52
 70
     0
102
RTVSPost2010Prop53
 90
        2
102
RTVSPost2010PropOp53
 70
     1
102
RTVSPost2010Prop54
  1
strokes_ogs.tif
102
RTVSPost2010PropOp54
 70
     1
102
RTVSPost2010Prop55
280
     0
102
RTVSPost2010PropOp55
 70
     1
102
RTVSPost2010Prop56
140
1.0
102
RTVSPost2010PropOp56
 70
     1
102
RTVSPost2010Prop57
140
1.0
102
RTVSPost2010PropOp57
 70
     1
102
RTVSPropertyOp0
 70
     1
102
RTVSPropertyOp1
 70
     1
102
RTVSPropertyOp2
 70
     1
102
RTVSPropertyOp3
 70
     1
102
RTVSPropertyOp4
 70
     1
102
RTVSPropertyOp5
 70
     1
102
RTVSPropertyOp6
 70
     1
102
RTVSPropertyOp7
 70
     1
102
RTVSPropertyOp8
 70
     1
102
RTVSPropertyOp9
 70
     1
102
RTVSPropertyOp10
 70
     1
102
RTVSPropertyOp11
 70
     1
102
RTVSPropertyOp12
 70
     1
102
RTVSPropertyOp13
 70
     1
102
RTVSPropertyOp14
 70
     1
102
RTVSPropertyOp15
 70
     1
102
RTVSPropertyOp16
 70
     1
102
RTVSPropertyOp17
 70
     1
102
RTVSPropertyOp18
 70
     1
102
RTVSPropertyOp19
 70
     1
102
RTVSPropertyOp20
 70
     1
102
RTVSPropertyOp21
 70
     1
102
RTVSPropertyOp22
 70
     1
102
RTVSPropertyOp23
 70
     1
102
RTVSPropertyOp24
 70
     1
102
RTVSPropertyOp25
 70
     1
102
RTVSPropertyOp26
 70
     1
102
RTVSPropertyOp27
 70
     1
102
RTVSPropertyOp28
 70
     1
102
RTVSPropertyOp29
 70
     1
102
RTVSPropertyOp30
 70
     1
102
RTVSPropertyOp31
 70
     1
102
RTVSPropertyOp32
 70
     1
102
RTVSPropertyOp33
 70
     1
102
RTVSPropertyOp34
 70
     1
102
RTVSPropertyOp35
 70
     1
102
RTVSPropertyOp36
 70
     1
102
RTVSPropertyOp37
 70
     1
102
RTVSPropertyOp38
 70
     1
102
RTVSPropertyOp39
 70
     1
102
RTVSPropertyOp40
 70
     1
102
RTVSPropertyOp41
 70
     1
102
RTVSPropertyOp42
 70
     1
102
RTVSPropertyOp43
 70
     1
102
RTVSPropertyOp44
 70
     1
102
RTVSPropertyOp45
 70
     1
102
RTVSPropertyOp46
 70
     1
102
RTVSPropertyOp47
 70
     1
102
RTVSPropertyOp48
 70
     1
102
RTVSPropertyOp49
 70
     1
102
RTVSPropertyOp50
 70
     1
102
RTVSPropertyOp51
 70
     0
102
RTVSPropertyOp52
 70
     0
102
RTVSPropertyOp53
 70
     1
102
RTVSPropertyOp54
 70
     1
102
RTVSPropertyOp55
 70
     1
102
RTVSPropertyOp56
 70
     1
102
RTVSPropertyOp57
 70
     1
102
RTVSPropertyOp58
 70
     1
102
RTVSPropertyOp59
 70
     1
102
RTVSPropertyOp60
 70
     1
102
RTVSPropertyOp61
 70
     1
102
RTVSPropertyOp62
 70
     1
  0
XRECORD
  5
BD5
102
{ACAD_REACTORS
330
BD4
102
}
330
BD4
100
AcDbXrecord
280
     1
102
RTVSPost2010Prop28
280
     0
102
RTVSPost2010PropOp28
 70
     1
102
RTVSPost2010Prop29
280
     1
102
RTVSPost2010PropOp29
 70
     1
102
RTVSPost2010Prop30
280
     1
102
RTVSPost2010PropOp30
 70
     1
102
RTVSPost2010Prop31
280
     0
102
RTVSPost2010PropOp31
 70
     1
102
RTVSPost2010Prop32
280
     0
102
RTVSPost2010PropOp32
 70
     1
102
RTVSPost2010Prop33
280
     0
102
RTVSPost2010PropOp33
 70
     1
102
RTVSPost2010Prop34
280
     0
102
RTVSPost2010PropOp34
 70
     1
102
RTVSPost2010Prop35
280
     0
102
RTVSPost2010PropOp35
 70
     1
102
RTVSPost2010Prop36
280
     0
102
RTVSPost2010PropOp36
 70
     1
102
RTVSPost2010Prop37
 90
       50
102
RTVSPost2010PropOp37
 70
     1
102
RTVSPost2010Prop38
140
0.0
102
RTVSPost2010PropOp38
 70
     1
102
RTVSPost2010Prop39
140
1.0
102
RTVSPost2010PropOp39
 70
     1
102
RTVSPost2010Prop40
 90
        0
102
RTVSPost2010PropOp40
 70
     1
102
RTVSPost2010Prop41ColorIndex
 90
       18
102
RTVSPost2010Prop41ColorRGB
 90
        0
102
RTVSPost2010PropOp41
 70
     1
102
RTVSPost2010Prop42
 90
       50
102
RTVSPost2010PropOp42
 70
     1
102
RTVSPost2010Prop43
 90
        3
102
RTVSPost2010PropOp43
 70
     1
102
RTVSPost2010Prop44ColorIndex
 90
        5
102
RTVSPost2010Prop44ColorRGB
 90
      255
102
RTVSPost2010PropOp44
 70
     1
102
RTVSPost2010Prop45
280
     0
102
RTVSPost2010PropOp45
 70
     1
102
RTVSPost2010Prop46
 90
       50
102
RTVSPost2010PropOp46
 70
     1
102
RTVSPost2010Prop47
 90
       50
102
RTVSPost2010PropOp47
 70
     1
102
RTVSPost2010Prop48
 90
       50
102
RTVSPost2010PropOp48
 70
     1
102
RTVSPost2010Prop49
280
     0
102
RTVSPost2010PropOp49
 70
     1
102
RTVSPost2010Prop50
 90
       50
102
RTVSPost2010PropOp50
 70
     1
102
RTVSPost2010Prop51ColorIndex
 90
      256
102
RTVSPost2010Prop51ColorRGB
 90
-16777216
102
RTVSPost2010PropOp51
 70
     0
102
RTVSPost2010Prop52
140
1.0
102
RTVSPost2010PropOp52
 70
     0
102
RTVSPost2010Prop53
 90
        2
102
RTVSPost2010PropOp53
 70
     1
102
RTVSPost2010Prop54
  1
strokes_ogs.tif
102
RTVSPost2010PropOp54
 70
     1
102
RTVSPost2010Prop55
280
     0
102
RTVSPost2010PropOp55
 70
     1
102
RTVSPost2010Prop56
140
1.0
102
RTVSPost2010PropOp56
 70
     1
102
RTVSPost2010Prop57
140
1.0
102
RTVSPost2010PropOp57
 70
     1
102
RTVSPropertyOp0
 70
     1
102
RTVSPropertyOp1
 70
     1
102
RTVSPropertyOp2
 70
     1
102
RTVSPropertyOp3
 70
     1
102
RTVSPropertyOp4
 70
     1
102
RTVSPropertyOp5
 70
     1
102
RTVSPropertyOp6
 70
     1
102
RTVSPropertyOp7
 70
     1
102
RTVSPropertyOp8
 70
     1
102
RTVSPropertyOp9
 70
     1
102
RTVSPropertyOp10
 70
     1
102
RTVSPropertyOp11
 70
     1
102
RTVSPropertyOp12
 70
     1
102
RTVSPropertyOp13
 70
     1
102
RTVSPropertyOp14
 70
     1
102
RTVSPropertyOp15
 70
     1
102
RTVSPropertyOp16
 70
     1
102
RTVSPropertyOp17
 70
     1
102
RTVSPropertyOp18
 70
     1
102
RTVSPropertyOp19
 70
     1
102
RTVSPropertyOp20
 70
     1
102
RTVSPropertyOp21
 70
     1
102
RTVSPropertyOp22
 70
     1
102
RTVSPropertyOp23
 70
     1
102
RTVSPropertyOp24
 70
     1
102
RTVSPropertyOp25
 70
     1
102
RTVSPropertyOp26
 70
     1
102
RTVSPropertyOp27
 70
     1
102
RTVSPropertyOp28
 70
     1
102
RTVSPropertyOp29
 70
     1
102
RTVSPropertyOp30
 70
     1
102
RTVSPropertyOp31
 70
     1
102
RTVSPropertyOp32
 70
     1
102
RTVSPropertyOp33
 70
     1
102
RTVSPropertyOp34
 70
     1
102
RTVSPropertyOp35
 70
     1
102
RTVSPropertyOp36
 70
     1
102
RTVSPropertyOp37
 70
     1
102
RTVSPropertyOp38
 70
     1
102
RTVSPropertyOp39
 70
     1
102
RTVSPropertyOp40
 70
     1
102
RTVSPropertyOp41
 70
     1
102
RTVSPropertyOp42
 70
     1
102
RTVSPropertyOp43
 70
     1
102
RTVSPropertyOp44
 70
     1
102
RTVSPropertyOp45
 70
     1
102
RTVSPropertyOp46
 70
     1
102
RTVSPropertyOp47
 70
     1
102
RTVSPropertyOp48
 70
     1
102
RTVSPropertyOp49
 70
     1
102
RTVSPropertyOp50
 70
     1
102
RTVSPropertyOp51
 70
     0
102
RTVSPropertyOp52
 70
     0
102
RTVSPropertyOp53
 70
     1
102
RTVSPropertyOp54
 70
     1
102
RTVSPropertyOp55
 70
     1
102
RTVSPropertyOp56
 70
     1
102
RTVSPropertyOp57
 70
     1
102
RTVSPropertyOp58
 70
     1
102
RTVSPropertyOp59
 70
     1
102
RTVSPropertyOp60
 70
     1
102
RTVSPropertyOp61
 70
     1
102
RTVSPropertyOp62
 70
     1
  0
XRECORD
  5
BED
102
{ACAD_REACTORS
330
BEC
102
}
330
BEC
100
AcDbXrecord
280
     1
102
RTVSPost2010Prop28
280
     0
102
RTVSPost2010PropOp28
 70
     1
102
RTVSPost2010Prop29
280
     1
102
RTVSPost2010PropOp29
 70
     1
102
RTVSPost2010Prop30
280
     1
102
RTVSPost2010PropOp30
 70
     1
102
RTVSPost2010Prop31
280
     0
102
RTVSPost2010PropOp31
 70
     1
102
RTVSPost2010Prop32
280
     0
102
RTVSPost2010PropOp32
 70
     1
102
RTVSPost2010Prop33
280
     0
102
RTVSPost2010PropOp33
 70
     1
102
RTVSPost2010Prop34
280
     0
102
RTVSPost2010PropOp34
 70
     1
102
RTVSPost2010Prop35
280
     0
102
RTVSPost2010PropOp35
 70
     1
102
RTVSPost2010Prop36
280
     0
102
RTVSPost2010PropOp36
 70
     1
102
RTVSPost2010Prop37
 90
       50
102
RTVSPost2010PropOp37
 70
     1
102
RTVSPost2010Prop38
140
0.0
102
RTVSPost2010PropOp38
 70
     1
102
RTVSPost2010Prop39
140
1.0
102
RTVSPost2010PropOp39
 70
     1
102
RTVSPost2010Prop40
 90
        0
102
RTVSPost2010PropOp40
 70
     1
102
RTVSPost2010Prop41ColorIndex
 90
       18
102
RTVSPost2010Prop41ColorRGB
 90
        0
102
RTVSPost2010PropOp41
 70
     1
102
RTVSPost2010Prop42
 90
       50
102
RTVSPost2010PropOp42
 70
     1
102
RTVSPost2010Prop43
 90
        3
102
RTVSPost2010PropOp43
 70
     1
102
RTVSPost2010Prop44ColorIndex
 90
        5
102
RTVSPost2010Prop44ColorRGB
 90
      255
102
RTVSPost2010PropOp44
 70
     1
102
RTVSPost2010Prop45
280
     0
102
RTVSPost2010PropOp45
 70
     1
102
RTVSPost2010Prop46
 90
       50
102
RTVSPost2010PropOp46
 70
     1
102
RTVSPost2010Prop47
 90
       50
102
RTVSPost2010PropOp47
 70
     1
102
RTVSPost2010Prop48
 90
       50
102
RTVSPost2010PropOp48
 70
     1
102
RTVSPost2010Prop49
280
     0
102
RTVSPost2010PropOp49
 70
     1
102
RTVSPost2010Prop50
 90
       50
102
RTVSPost2010PropOp50
 70
     1
102
RTVSPost2010Prop51ColorIndex
 90
      256
102
RTVSPost2010Prop51ColorRGB
 90
-16777216
102
RTVSPost2010PropOp51
 70
     0
102
RTVSPost2010Prop52
140
1.0
102
RTVSPost2010PropOp52
 70
     0
102
RTVSPost2010Prop53
 90
        2
102
RTVSPost2010PropOp53
 70
     1
102
RTVSPost2010Prop54
  1
strokes_ogs.tif
102
RTVSPost2010PropOp54
 70
     1
102
RTVSPost2010Prop55
280
     0
102
RTVSPost2010PropOp55
 70
     1
102
RTVSPost2010Prop56
140
1.0
102
RTVSPost2010PropOp56
 70
     1
102
RTVSPost2010Prop57
140
1.0
102
RTVSPost2010PropOp57
 70
     1
102
RTVSPropertyOp0
 70
     1
102
RTVSPropertyOp1
 70
     1
102
RTVSPropertyOp2
 70
     1
102
RTVSPropertyOp3
 70
     1
102
RTVSPropertyOp4
 70
     1
102
RTVSPropertyOp5
 70
     1
102
RTVSPropertyOp6
 70
     1
102
RTVSPropertyOp7
 70
     1
102
RTVSPropertyOp8
 70
     1
102
RTVSPropertyOp9
 70
     1
102
RTVSPropertyOp10
 70
     1
102
RTVSPropertyOp11
 70
     1
102
RTVSPropertyOp12
 70
     1
102
RTVSPropertyOp13
 70
     1
102
RTVSPropertyOp14
 70
     1
102
RTVSPropertyOp15
 70
     1
102
RTVSPropertyOp16
 70
     1
102
RTVSPropertyOp17
 70
     1
102
RTVSPropertyOp18
 70
     1
102
RTVSPropertyOp19
 70
     1
102
RTVSPropertyOp20
 70
     1
102
RTVSPropertyOp21
 70
     1
102
RTVSPropertyOp22
 70
     1
102
RTVSPropertyOp23
 70
     1
102
RTVSPropertyOp24
 70
     1
102
RTVSPropertyOp25
 70
     1
102
RTVSPropertyOp26
 70
     1
102
RTVSPropertyOp27
 70
     1
102
RTVSPropertyOp28
 70
     1
102
RTVSPropertyOp29
 70
     1
102
RTVSPropertyOp30
 70
     1
102
RTVSPropertyOp31
 70
     1
102
RTVSPropertyOp32
 70
     1
102
RTVSPropertyOp33
 70
     1
102
RTVSPropertyOp34
 70
     1
102
RTVSPropertyOp35
 70
     1
102
RTVSPropertyOp36
 70
     1
102
RTVSPropertyOp37
 70
     1
102
RTVSPropertyOp38
 70
     1
102
RTVSPropertyOp39
 70
     1
102
RTVSPropertyOp40
 70
     1
102
RTVSPropertyOp41
 70
     1
102
RTVSPropertyOp42
 70
     1
102
RTVSPropertyOp43
 70
     1
102
RTVSPropertyOp44
 70
     1
102
RTVSPropertyOp45
 70
     1
102
RTVSPropertyOp46
 70
     1
102
RTVSPropertyOp47
 70
     1
102
RTVSPropertyOp48
 70
     1
102
RTVSPropertyOp49
 70
     1
102
RTVSPropertyOp50
 70
     1
102
RTVSPropertyOp51
 70
     0
102
RTVSPropertyOp52
 70
     0
102
RTVSPropertyOp53
 70
     1
102
RTVSPropertyOp54
 70
     1
102
RTVSPropertyOp55
 70
     1
102
RTVSPropertyOp56
 70
     1
102
RTVSPropertyOp57
 70
     1
102
RTVSPropertyOp58
 70
     1
102
RTVSPropertyOp59
 70
     1
102
RTVSPropertyOp60
 70
     1
102
RTVSPropertyOp61
 70
     1
102
RTVSPropertyOp62
 70
     1
  0
ENDSEC
  0
EOF
